<?xml version="1.0" standalone="no"?>
<!DOCTYPE svg PUBLIC "-//W3C//DTD SVG 1.1//EN" "http://www.w3.org/Graphics/SVG/1.1/DTD/svg11.dtd" >
<svg xmlns="http://www.w3.org/2000/svg" xmlns:xlink="http://www.w3.org/1999/xlink" version="1.1">
<metadata>
Created by FontForge 20190801 at Mon May  1 05:36:15 2017
 By Martin
Adobe Systems Incorporated
</metadata>
<defs>
<font id="Genkaimincho" horiz-adv-x="1000" >
  <font-face 
    font-family="Genkaimincho"
    font-weight="800"
    font-stretch="normal"
    units-per-em="1000"
    panose-1="2 0 9 0 0 0 0 0 0 0"
    ascent="880"
    descent="-120"
    x-height="547"
    cap-height="747"
    bbox="-194 -293 1112 1014"
    underline-thickness="50"
    underline-position="-100"
    unicode-range="U+0001-FFE8"
  />
<missing-glyph 
 />
    <glyph glyph-name=".notdef" 
 />
    <glyph glyph-name="cid1" horiz-adv-x="500" 
 />
    <glyph glyph-name="cid1" unicode=" " horiz-adv-x="500" 
 />
    <glyph glyph-name="cid1" horiz-adv-x="500" 
 />
    <glyph glyph-name="cid1" horiz-adv-x="500" 
 />
    <glyph glyph-name="cid1" horiz-adv-x="500" 
 />
    <glyph glyph-name="cid1" horiz-adv-x="500" 
 />
    <glyph glyph-name="cid1" horiz-adv-x="500" 
 />
    <glyph glyph-name="cid1" horiz-adv-x="500" 
 />
    <glyph glyph-name="cid1" horiz-adv-x="500" 
 />
    <glyph glyph-name="cid1" horiz-adv-x="500" 
 />
    <glyph glyph-name="cid1" horiz-adv-x="500" 
 />
    <glyph glyph-name="cid1" horiz-adv-x="500" 
 />
    <glyph glyph-name="cid1" horiz-adv-x="500" 
 />
    <glyph glyph-name="cid1" horiz-adv-x="500" 
 />
    <glyph glyph-name="cid1" horiz-adv-x="500" 
 />
    <glyph glyph-name="cid1" horiz-adv-x="500" 
 />
    <glyph glyph-name="cid1" horiz-adv-x="500" 
 />
    <glyph glyph-name="cid1" horiz-adv-x="500" 
 />
    <glyph glyph-name="cid1" horiz-adv-x="500" 
 />
    <glyph glyph-name="cid1" horiz-adv-x="500" 
 />
    <glyph glyph-name="cid1" unicode="&#xd;" horiz-adv-x="500" 
 />
    <glyph glyph-name="cid1" horiz-adv-x="500" 
 />
    <glyph glyph-name="cid1" horiz-adv-x="500" 
 />
    <glyph glyph-name="cid1" unicode="&#xa;" horiz-adv-x="500" 
 />
    <glyph glyph-name="cid1" unicode="&#x9;" horiz-adv-x="500" 
 />
    <glyph glyph-name="cid1" horiz-adv-x="500" 
 />
    <glyph glyph-name="cid1" horiz-adv-x="500" 
 />
    <glyph glyph-name="cid1" horiz-adv-x="500" 
 />
    <glyph glyph-name="cid1" horiz-adv-x="500" 
 />
    <glyph glyph-name="cid1" horiz-adv-x="500" 
 />
    <glyph glyph-name="cid1" horiz-adv-x="500" 
 />
    <glyph glyph-name="cid1" horiz-adv-x="500" 
 />
    <glyph glyph-name="cid1" horiz-adv-x="500" 
 />
    <glyph glyph-name="cid2" unicode="!" horiz-adv-x="378" 
d="M133 407q-21 58 -34 117.5t-13 122.5l1 53q10 31 37 49t59 18q53 0 78.5 -34t25.5 -82q0 -10 -4.5 -43.5t-12 -77.5t-17.5 -93t-21.5 -90t-24 -67.5t-24.5 -26.5h-16q-7 9 -11 22t-6.5 27t-3 27.5t-0.5 23.5l1 14q1 -8 10.5 -8h12.5q10 0 17 1.5t7 13.5q0 9 -6.5 24
t-15.5 29.5t-19.5 25.5t-19.5 11v-57zM261 647q0 9 -7 26.5t-18 35.5t-24 31.5t-25 13.5q-5 0 -8.5 -1t-5.5 -6q13 -18 17 -27t4 -26l-1 -14q0 -2 -3 -10t-3 -10q0 -8 6.5 -16t15.5 -15t18.5 -11.5t15.5 -4.5q5 0 10 0.5t7 6.5zM113 587q5 0 5 6.5t-5 6.5t-5 -6.5t5 -6.5z
M140 380q-3 -1 -3 3t3 4q3 -1 3 -3.5t-3 -3.5zM207 327h-7v-7h7v7zM287 73q0 -43 -29 -71.5t-71 -28.5q-48 0 -74.5 30.5t-26.5 75.5q0 43 27.5 69t69.5 26q20 0 39 -5t31 -22q-8 -3 -16 -9.5t-8 -14.5q8 0 12 -1.5t7 -1.5t7 2.5t12 10.5q13 -9 16.5 -27.5t3.5 -32.5z
M196 137q0 11 -2 21t-16 10q0 -8 3 -19.5t15 -11.5zM200 80q-1 -7 -3 -13q-2 -5 -3 -11t-1 -9v-8q0 -4 0.5 -7t6.5 -5q13 8 14.5 24t1.5 29h-16z" />
    <glyph glyph-name="cid3" unicode="&#x22;" horiz-adv-x="482" 
d="M207 730q0 -17 -1.5 -45t-5.5 -59.5t-10.5 -63t-15.5 -57.5t-22 -42.5t-29 -16.5q-12 0 -22 19t-18.5 48.5t-15.5 65t-11.5 68t-7 58t-2.5 34.5q0 18 3 35t10.5 30.5t21.5 21.5t35 8q32 0 56 -14.5t35 -46.5v-43zM434 727q0 -70 -17.5 -135.5t-36.5 -131.5
q-4 -5 -10.5 -9.5t-12.5 -4.5q-14 0 -26 17t-22.5 44t-18 60.5t-13 65.5t-8.5 60t-3 44q0 45 21.5 71t69.5 26q56 0 76 -54zM361 780q0 11 -10.5 12.5t-18.5 1.5t-17.5 -6t-17.5 -14.5t-13 -18.5t-5 -18q0 -7 1 -10q6 13 19.5 17t27 6.5t24 8t10.5 21.5zM154 704q0 4 -6 6.5
t-13.5 3.5t-14.5 1h-9q0 -10 8 -16t17 -6q6 0 12 1.5t6 9.5zM95 567q0 8 -8 13v-13h8z" />
    <glyph glyph-name="cid4" unicode="#" horiz-adv-x="634" 
d="M480 423q-8 0 -12.5 -13t-6.5 -30t-2 -32.5v-19.5v-13q0 -4 1 -8l13 -7h107v-123h-140q-7 0 -9.5 -14t-3.5 -35.5t-2.5 -46t-6.5 -46t-15.5 -35.5t-29.5 -14q-7 0 -13.5 0.5t-12.5 6.5l-1 27q0 33 7.5 63.5t7.5 63.5l-1 26q-11 0 -17.5 13.5t-12.5 29t-13 29t-19 13.5
q0 -12 4.5 -21.5t10.5 -18.5t10.5 -19t4.5 -22h-115q-2 -2 -3 -4t-2 -3.5t-1 -2.5l-7 -14q-2 -14 -2 -42t-4.5 -56t-16.5 -48.5t-37 -20.5q-8 0 -14 0.5t-13 6.5v20q0 36 10.5 70.5t10.5 70.5l-1 6q-1 2 -3 10q-1 4 -3 7h-114v126h140q1 0 4 9t3 15q6 19 7 26.5t0.5 14.5
t-2 18t-1.5 37h-111v124h120q15 0 21 14t7.5 34.5t1.5 45t4 45t14 34.5t32 14q8 0 14.5 -0.5t12.5 -6.5v-20q0 -17 -5.5 -33t-11.5 -31.5t-11.5 -30.5t-5.5 -29q0 -2 1 -3q0 -2 5.5 -9.5t7.5 -10.5q1 -2 3.5 -4.5t3.5 -2.5h146q9 0 12.5 13.5t4.5 33.5t2 43.5t5 43.5
t13.5 33.5t28.5 13.5q13 0 24 -1.5t11 -17.5q0 -36 -10.5 -71t-10.5 -72q0 -8 4.5 -16.5t15.5 -8.5h107v-124h-140zM267 713h-7v-6h7v6zM475 687q0 13 -12 13h-3v-13h15zM240 440l-7 33q-15 -1 -25.5 2t-19.5 7.5t-17.5 8t-20.5 3.5q-10 0 -14 -8.5t-4 -15.5q0 -12 10.5 -22
t25.5 -18t30.5 -12.5t25.5 -4.5q7 0 11.5 6.5t4.5 13.5v7zM440 440q3 2 3 7t-3 6q-3 2 -3 -6.5t3 -6.5zM380 300q5 0 9 14t6.5 31.5t3.5 33t1 19.5q0 1 0.5 11.5t-7.5 10.5h-146q-7 0 -11 -13t-6.5 -29.5t-3 -32t-0.5 -20.5l1 -18q0 -2 2.5 -4.5t3.5 -2.5h147zM413 373
q-5 -2 -6 -6q-1 -1 -1 -4q0 -2 1 -3q1 -2 6 -7t7 -6q1 -1 3 -1q3 0 4 1q4 1 6 6zM507 287q-3 0 -8 -3.5t-10 -8t-9.5 -9l-6.5 -6.5q21 -5 45.5 -9t45.5 -4q6 0 9 5.5t3.5 13t0 13.5t-0.5 8h-69zM40 273q-2 0 -3.5 -6.5t-2.5 -15t-1 -17v-11.5q0 -8 0.5 -15.5t6.5 -14.5
q3 4 9.5 9t13.5 10.5t12.5 11t5.5 10.5t-1 6l-33 33h-7zM230 198q0 15 -6.5 24.5t-16.5 15t-23 7.5t-25 2q-13 0 -13 -11q0 -13 11 -20.5t25.5 -11.5t28 -5t19.5 -1zM493 193l-6 -6h13zM411 35q0 26 -12.5 30t-34.5 4q0 -18 16.5 -26t30.5 -8z" />
    <glyph glyph-name="cid5" unicode="$" horiz-adv-x="608" 
d="M347 440q0 -2 16 -9.5t39.5 -21.5t51.5 -34t51.5 -46t39.5 -58.5t16 -71.5q0 -55 -17.5 -89.5t-46.5 -58.5t-68 -41t-82 -37q-2 -1 -3.5 -1.5t-3.5 -1.5t-3 -3v-100q0 -2 -4 -4.5t-6 -2.5l-20 -1h-12q-4 0 -8 1q-7 0 -7 7v84q6 0 13 2t7 10q0 9 -6 16.5t-14 7.5
q-5 0 -7 -2t-3 -5t-2.5 -5t-6.5 -2q-1 0 -17 1t-35 3.5t-34.5 7t-15.5 12.5q0 2 1 3l27 20q-3 1 -10 1q-6 0 -10 -3.5t-7.5 -7l-7 -7t-8.5 -3.5q-21 0 -39 14t-31 35t-20.5 44t-7.5 41q0 13 6.5 24.5t16.5 19t23 12t25 4.5q28 0 42 -12.5t20.5 -31t9 -40.5t8.5 -40.5
t18.5 -31t38.5 -12.5q6 0 12.5 2.5t6.5 11.5v233q0 4 -4.5 11t-8.5 9q-42 21 -79 42.5t-64 48.5t-42.5 63t-15.5 86q0 45 15.5 78t42 57t62 39.5t74.5 25.5q3 1 7 2.5t8 2.5t9 2v100h66v-93l10 -7q31 -7 65.5 -18.5t63 -30.5t47 -47t18.5 -68q0 -26 -22 -41.5t-46 -15.5
q-23 0 -40 12t-28 30t-16 39.5t-5 41.5q6 0 13.5 0.5t14 3t11.5 7.5t5 13q0 4 -0.5 11t-2 14t-5 11.5t-9.5 4.5h-4q0 -1 -2.5 -3.5l-3.5 -3.5q-3 -3 -10.5 -13.5t-9.5 -13.5q-6 6 -11.5 6.5t-12.5 0.5h-9.5t-6.5 -7v-233zM333 829q-2 0 -6 -2q-4 -3 -14 -13.5t-13 -13.5h7
q6 4 16 11.5t10 8.5v9zM273 668q-20 0 -34 -13.5t-26 -27.5v10q0 7 3.5 12.5t7 10t7 9.5t3.5 11q0 1 -0.5 5t-2 7.5t-4.5 4.5t-7 -4l-80 -80q-15 -4 -24 -15.5t-14.5 -26t-7 -30t-1.5 -28.5q0 -9 7 -11t14 -2q3 0 8 0.5t5 6.5q0 1 -3.5 9.5t-3.5 10.5v13q0 4 1 11t3.5 14
t6.5 12.5t9 5.5h53l7 10q1 -15 4.5 -36t11.5 -40t21.5 -32t35.5 -13v196zM335 575q0 22 -10.5 27t-31.5 11q-5 -1 -6 -5t-1 -8q0 -9 5.5 -14t13.5 -7.5t16.5 -3t13.5 -0.5zM333 469q-7 0 -14.5 -7.5t-7.5 -14.5h22v22zM293 427q-4 8 -14.5 10.5t-18.5 2.5q-3 0 -13 -10
t-20.5 -23.5t-19 -26t-8.5 -16.5t0.5 -10t7.5 -7q8 13 19 22t23 18t23.5 18t20.5 22zM93 420q5 0 5 6.5t-5 6.5t-5 -6.5t5 -6.5zM420 300q6 17 17 32t23 28q-1 2 -6 4.5t-7 2.5q-18 0 -32.5 -7t-14.5 -26q0 -8 3 -21t14 -13h3zM300 273v-15q15 0 15 15h-15zM337 39
q21 0 34.5 11.5t21.5 28.5t11 36t3 35q0 13 -2.5 28.5t-9 29t-17 24.5t-25.5 15q-5 0 -10 1h-6v-36q-10 0 -18.5 -2t-11.5 -13h30v-158zM554 160q0 14 -13 14q-5 0 -19.5 -4.5t-29.5 -10.5t-27 -13t-12 -12q0 -11 6 -19t8 -22q2 -1 6 -1q3 0 16 9.5t27.5 21.5t26 23t11.5 14
zM273 -40q-5 0 -5 6.5t5 6.5t5 -6.5t-5 -6.5z" />
    <glyph glyph-name="cid6" unicode="%" horiz-adv-x="989" 
d="M736 747q11 0 22 -10.5t15 -16.5q1 -1 1 -3q0 -3 -1 -4l-246 -366l-14 -14q3 6 0 9t-8 4.5t-10 1.5h-7q-11 0 -21 -6t-17.5 -15.5t-12 -21t-4.5 -21.5q0 -9 3 -17.5t11 -13.5q2 21 6 30.5t11 14.5t17.5 9t25.5 13q-6 -11 -25.5 -42t-45.5 -72t-56 -85.5t-56.5 -82
t-46.5 -61.5t-27 -24q-10 0 -21 10.5t-16 16.5v7l107 160q6 9 15 20.5t18 19.5l7 -7q15 12 33 20h-33l7 13q0 1 8.5 13.5t22 32.5t30 44.5t33.5 49.5t32.5 48t26.5 39q6 9 12.5 13.5t13 8t12 7.5t9.5 11l-14 7l167 246q1 2 6.5 7t6.5 7h3zM138 313q0 10 -6 19t-19 9t-13 -14
q-15 16 -23 37t-12 43.5t-5 45.5t-1 44q0 39 7.5 81t26 76.5t50.5 57t80 22.5q49 0 83.5 -21t57 -54.5t33 -76t10.5 -85.5q0 -41 -10 -83.5t-31.5 -76.5t-55 -55.5t-80.5 -21.5q-70 0 -117 53h25zM240 722q-6 0 -14 -1.5t-15.5 -4.5t-12.5 -8.5t-5 -14.5v-6l47 20v15z
M340 373q1 1 1 6q0 10 -4 17.5t-4 18.5q0 15 10 31t22 32.5t22 34t10 35.5l-17 -1q-2 -1 -10 -4t-10 -3q-19 0 -30 23t-23 50.5t-30 50.5t-52 23q-15 0 -25 -11.5t-15.5 -27.5t-8 -33t-3.5 -28q0 -11 -1 -36.5t-2 -54t-2 -54t-1 -35.5q-3 1 -13.5 3.5t-13.5 2.5h-2
q-1 0 -2.5 0.5t-2.5 0.5q-4 0 -6 -1q7 -4 21.5 -13t24.5 -13q2 -9 6 -24t10.5 -29t16.5 -24t24 -10h3q3 1 8.5 3.5t12 6t12 6.5t7.5 4q-3 28 4.5 61t15.5 59q8 -13 14.5 -27.5t6.5 -29.5q0 -13 -7.5 -22t-7.5 -21h8zM927 227q0 -42 -8 -86t-28 -80t-53.5 -59t-84.5 -23
q-3 0 -14 -0.5t-12 8.5q27 31 43 53t24 45.5t10.5 53.5t2.5 78q0 12 1.5 43t-2.5 64t-16.5 58t-40.5 25q-8 0 -20 -10.5t-23 -25t-19 -29t-8 -22.5l1 -13l13 6q-2 -66 2.5 -125t4.5 -123q0 -21 -4.5 -35.5t-4.5 -37.5q-17 0 -34.5 13.5t-31.5 32.5t-23 40.5t-9 36.5
q8 0 14 -4t11.5 -8.5t12 -8.5t14.5 -4q0 15 -3 42.5t-6.5 57.5t-8 58t-7.5 45q0 7 -7 7q-3 1 -13.5 2t-13.5 1q0 30 14 57.5t37 48t51 33t57 12.5q19 0 45.5 -6t51 -18.5t42 -31t17.5 -43.5q-11 0 -24.5 -6t-25.5 -15.5t-20.5 -21t-8.5 -21.5q24 0 44.5 -5.5t43.5 -5.5h3
l14 7v-60zM729 442q-17 0 -24 -3.5t-7 -20.5q16 0 23.5 3.5t7.5 20.5zM907 333q-5 0 -5 7t5 7t5 -7t-5 -7zM107 313q-5 0 -5 7t5 7t5 -7t-5 -7zM587 280q20 -12 24 -25t4 -32q0 -8 -1.5 -17t-5.5 -16.5t-11 -13t-17 -5.5v96zM913 162q-13 0 -13 -12t13 -12v24zM767 7
q1 3 -7 3t-7 -3q2 -3 7 -3t7 3z" />
    <glyph glyph-name="cid7" unicode="&#x26;" horiz-adv-x="815" 
d="M780 480q7 0 7 -9v-11q0 -17 -12.5 -22t-29 -8t-32 -9.5t-20.5 -27.5h-3q-10 0 -20.5 4.5t-10.5 16.5q0 9 5 14.5t16 11.5h-10q-12 0 -21 -5t-9 -18q0 -27 10.5 -56.5t10.5 -53.5q0 -6 -13 -24t-29.5 -39.5t-31.5 -42.5t-20 -34q-2 -5 -8 -16t-12 -11h-54q-3 0 -9 15
t-13.5 33.5t-15.5 36t-15 22.5h-3q-9 0 -15 -10t-9 -17v-3q0 -8 5.5 -10.5t11.5 -4.5t11.5 -5.5t5.5 -13.5q0 -7 -4 -11t-9.5 -7t-9.5 -6t-4 -9q0 -16 11.5 -31.5t21.5 -25.5h4q13 0 37 5.5t47.5 15t42.5 21.5t23 25l120 -120q6 -6 15 -7t17.5 -2.5t15 -5.5t6.5 -15
q0 -17 -11.5 -24.5t-27.5 -10.5t-33.5 -2.5t-28.5 0.5h-33q-14 20 -35 29t-44.5 15t-46.5 13t-41 23q-2 1 -7 1l-6 -1q-4 -1 -15.5 -6t-14.5 -7v31l-9 2q-4 0 -8 0.5t-7 -0.5q-5 0 -23 -3t-38 -9.5t-36 -16t-16 -21.5v-3q0 -1 3 -6.5t4 -6.5v-7l-7 -27h-47q-44 0 -85 13
t-72.5 38.5t-50.5 62t-19 84.5q0 53 24 91t53.5 64t53.5 43t24 28q0 22 -9.5 43t-21 43t-21 45t-9.5 49q0 36 11.5 71.5t41.5 58.5q26 -7 54.5 -2t45.5 28q1 1 1 4q0 2 -1 3q0 2 -2.5 7t-3.5 6q6 4 15 6t18.5 2.5t18 0t14.5 -0.5q34 0 68.5 -8t62.5 -26t46 -46t18 -68
q0 -44 -23 -77t-51 -56t-51 -37t-23 -20v-3l3.5 -7t3.5 -6q7 -9 25.5 -30t40 -44.5t40.5 -44t27 -28.5q6 -6 16 -16.5t21 -10.5q9 0 19.5 22.5t18.5 52t13.5 56.5t5.5 36q0 3 0.5 14t-7.5 13l-67 13q-7 2 -7 9.5v11.5q0 8 1 13.5t13 5.5h233zM247 747q-17 -27 -47 -27v7
l4.5 2.5t11 5.5t13.5 6.5l11 5.5h7zM474 593q10 0 11.5 8.5t1.5 15.5q0 13 -4 23t-9 20.5t-9 22t-4 26.5q-1 0 -0.5 -1t-0.5 -1q-3 -3 -12 -9.5t-19 -13.5t-18.5 -13.5t-10.5 -10.5q-12 16 -28.5 28.5t-37.5 12.5q-37 0 -56 -26t-19 -59q0 -12 6 -36.5t16.5 -50t24.5 -44.5
t31 -19q16 0 28.5 19.5t21.5 44.5t14 49.5t6 33.5l60 -20h7zM507 560q-3 4 -7 7v-20q4 1 7 6v7zM553 467h-15q0 -8 3 -15t12 -7v22zM427 100q0 4 -14.5 24t-36 47.5t-47.5 58.5t-48.5 57t-38.5 43t-19 17q-15 0 -23.5 -15.5t-13 -35.5t-6 -40t-1.5 -30q0 -72 43.5 -112.5
t113.5 -40.5q7 0 22 -0.5t30.5 1.5t27 8t11.5 18zM360 227q0 10 -6 18.5t-14 14.5q-5 -2 -6 -5.5t-1 -8.5q0 -10 9 -16.5t18 -9.5v7zM167 233l-14 14q-1 -2 -6.5 -7t-6.5 -7v-6q1 -2 6.5 -7t6.5 -7h7q1 1 3.5 6t3.5 8v6zM69 178q0 10 -8.5 17t-13.5 12q-1 -3 -1 -7
q0 -9 7 -15.5t16 -6.5zM100 107q-7 0 -13.5 -4.5t-6.5 -12.5q0 -5 5.5 -13.5t13 -17t16 -15t13.5 -6.5q0 9 -3.5 16.5l-7 15t-7 16.5t-3.5 21h-7zM249 47q0 5 -2.5 12.5t-9.5 7.5h-4q-3 -3 -9 -8.5t-6 -11.5h31zM327 20v7h6zM413 13q-5 0 -5 7t5 7t5 -7t-5 -7zM320 -20
q14 10 24.5 15.5t25.5 5.5q7 0 10 -1q-11 -6 -25.5 -13t-27.5 -7h-7z" />
    <glyph glyph-name="cid8" unicode="'" horiz-adv-x="254" 
d="M100 720q4 0 13.5 0.5t20 1.5t20 2.5t13.5 2.5q15 12 24 28.5t2 37.5q7 -2 10 -10t4 -18.5t0.5 -20t-0.5 -14.5q0 -30 -5 -59t-15 -58q-3 13 -7 17t-13 4q-17 0 -26 -11.5t-14 -25.5t-9.5 -25.5t-13.5 -11.5h-4q-1 0 -6.5 3t-6.5 4h-7q-2 -1 -4 -1.5t-4 -2.5
q-13 45 -22.5 91t-9.5 93q0 42 21.5 61t60.5 19h16t22 -2t19 -7t8 -15v-3q-11 8 -14.5 6.5t-15.5 -1.5q0 -24 -3.5 -31t-12 -7.5t-22 0.5t-32.5 -7q-8 -3 -21 -10.5t-13 -9.5v-7l4 -2t9 -4t11 -4t10 -3h13zM180 593q5 0 5 -6.5t-5 -6.5t-5 6.5t5 6.5zM93 513q1 -1 6 -1
q10 0 22.5 4t24 11t19.5 17t8 23q1 -3 1 -7q0 -9 -2.5 -28t-8.5 -38t-15.5 -33.5t-24.5 -14.5q-14 0 -22 11t-13 26t-6.5 30.5t-1.5 23.5v10zM67 560l5 3l1 -3h-6z" />
    <glyph glyph-name="cid9" unicode="(" horiz-adv-x="418" 
d="M160 0q-32 32 -49 80.5t-24.5 101.5t-8.5 105t-1 91q12 0 18 6t11.5 13.5t13.5 14t25 6.5q0 9 -5.5 14t-14 7.5t-18 2.5h-17.5q0 15 1.5 30.5t6.5 28.5t14 21.5t25 8.5q0 6 -1.5 8t-4 3.5t-4 3.5t-1.5 7q0 11 13 35.5t33.5 55t46 63t50 59.5t45.5 44t33 17q8 0 17.5 -9.5
t9.5 -17.5q0 -15 -8 -28.5t-18.5 -26.5t-22 -26t-18.5 -26q-50 -95 -72 -187t-22 -200q0 -76 11 -152t43 -147q9 -21 27 -45t36 -48.5t31 -49t13 -45.5q0 -10 -7.5 -15t-16.5 -5q-13 0 -29 12t-30.5 26.5t-25 27.5t-12.5 15q5 2 7 7v6q-14 1 -29.5 10.5t-28.5 23t-21.5 29
t-8.5 28.5q4 0 14.5 0.5t21 3t18.5 8t8 14.5q0 4 -5.5 8.5t-12.5 8t-14.5 5.5t-11.5 2q-16 0 -21 -13.5t-2 -27.5zM196 589q0 11 -5.5 22t-18.5 11q0 -13 4.5 -23t19.5 -10zM87 420q-5 0 -5 6.5t5 6.5t5 -6.5t-5 -6.5z" />
    <glyph glyph-name="cid10" unicode=")" horiz-adv-x="418" 
d="M276 527q0 -23 8 -40t9 -40q1 -1 4 -1q2 0 3 1q1 0 6.5 3t6.5 3q1 1 4 1q2 0 3 -1q9 -36 11.5 -71t2.5 -72q0 -24 -1 -54t-4.5 -60t-12 -58.5t-23.5 -50.5v32q-29 0 -33.5 -4t-2 -9t2.5 -9t-20 -4q-9 0 -12 7t-11 7t-13 -6.5t-5 -13.5q0 -8 4.5 -14t9.5 -12t9.5 -13.5
t4.5 -17.5q0 -11 -3.5 -20.5t-3.5 -19.5v-3q2 -5 7 -7q0 13 7 25t17 23.5t20 22.5t16 22v-3q0 -15 -14 -40.5t-35.5 -56t-48 -61.5t-51 -56t-45 -41t-30.5 -16t-17.5 4.5t-12.5 16.5q1 2 2 5q1 4 5 8q39 60 68.5 115.5t50 112.5t31 118.5t10.5 133.5q0 108 -25 200.5
t-75 186.5q-14 27 -34.5 49.5t-32.5 50.5l27 27h3q15 0 39.5 -20t51.5 -52t54.5 -71t49.5 -77t36 -70.5t14 -51.5q-7 0 -12 5t-8 11.5t-5 13.5t-3 12h-4zM113 700q3 1 3 3.5t-3 3.5q-3 0 -3 -4t3 -3zM180 637q0 6 -4.5 8t-9.5 2q-6 0 -11.5 -2.5t-7.5 -11.5q-3 -9 2.5 -11.5
t10.5 -2.5q7 0 13.5 5t6.5 13zM220 397q16 0 25 2.5t9 18.5q0 12 -9 17t-22 5h-3v-43zM149 -120q0 5 -1.5 11.5t-7.5 8.5v-20h9z" />
    <glyph glyph-name="cid11" unicode="*" horiz-adv-x="493" 
d="M273 648q21 0 38.5 10.5t34.5 22.5t35 22.5t39 10.5q26 0 37 -17t11 -39q0 -30 -21.5 -42.5t-50 -17t-58 -5t-45.5 -6.5v-4q0 -12 17 -24.5t37 -27.5t37 -34t17 -44q0 -22 -11.5 -37.5t-36.5 -15.5q-23 0 -36.5 12.5t-22.5 31t-15.5 40t-14.5 40t-19.5 31t-31.5 12.5
q-9 0 -16 -8t-7 -17q-16 0 -28 -4.5t-22 -17.5q21 3 31.5 -2t28.5 -5q6 0 10 1t10 6v-3q0 -16 -7 -36t-18.5 -38t-27.5 -30.5t-34 -12.5q-25 0 -36 16t-11 37v18t7 16l100 100l-13 6q-8 1 -29.5 1t-46 2.5t-46.5 9.5t-31 21q-3 1 -5 8q-1 3 -2 5q3 7 7.5 11l9 8t7.5 8.5
t3 13.5q0 7 -2.5 11t-11.5 8q8 5 18 9.5t19 4.5q16 0 33.5 -8t35 -18.5t33.5 -22t28 -18.5h11q0 34 -9 65.5t-9 66.5q0 25 9.5 43.5t40.5 18.5q28 0 39.5 -17.5t11.5 -41.5q0 -17 -2 -35.5t-12 -33.5q-6 8 -14.5 14.5t-18.5 6.5q-5 0 -7 -1q0 -2 -0.5 -9t-1.5 -14.5
t-2.5 -14t-2.5 -8.5v-7q2 -2 7 -10t7 -10l26 27v-39zM373 620q5 0 5 6.5t-5 6.5t-5 -6.5t5 -6.5zM362 499q0 7 -6 12.5t-14 9t-16.5 5t-12.5 1.5q-2 -1 -3 -2q-3 -2 -3 -5q-1 -1 -1 -3q0 -3 1 -4q12 -2 26.5 -8t28.5 -6z" />
    <glyph glyph-name="cid12" unicode="+" horiz-adv-x="615" 
d="M400 333l7 14v3q0 6 -4.5 8t-8.5 2q-11 0 -17.5 -5t-11 -12t-9.5 -13.5t-13 -9.5v-240h-73v233q-2 2 -6 10t-4 10q-1 9 4.5 18t15.5 9q-1 19 -6 23t-16 4q-20 0 -32.5 -11t-12.5 -33v-3q3 -4 7 -7h-193v64h220q1 1 6 5t7 5q1 0 5 3t5 3v227l10 7l20 1q4 0 14.5 -0.5
t12.5 -0.5q3 -1 9.5 -3.5t6.5 -3.5v-233l17 -10h220v-64h-180zM393 380q5 0 5 6.5t-5 6.5t-5 -6.5t5 -6.5zM507 387v-20q7 5 15.5 10.5t17.5 9.5h-33zM333 280q1 3 2 10.5t2 16t2 16t1 10.5q0 2 -3.5 10.5t-3.5 9.5q0 2 3.5 10.5t3.5 9.5l1 10q-6 0 -16.5 -6t-20.5 -15
t-17.5 -19t-7.5 -18t5 -16t12.5 -14.5t16.5 -10.5t17 -4h3zM500 353q-8 -5 -8 -13h8v13zM280 200q-1 -2 -1 -7q0 -9 7.5 -13.5t17 -6.5t19 -2h14.5q0 12 -5 24.5t-19 12.5q-5 0 -6.5 -2.5t-2.5 -5t-2.5 -5t-4.5 -2.5h-4z" />
    <glyph glyph-name="cid13" unicode="," horiz-adv-x="340" 
d="M167 -40q-19 10 -36 20.5t-30 24t-20.5 30.5t-7.5 40q0 42 25.5 67t67.5 25q14 0 24 -0.5t23 -6.5v-11t7 -9q1 0 6.5 3.5t6.5 3.5q11 -4 18 -21t9 -26l1 -50q0 -40 -15.5 -89t-43 -92.5t-66.5 -73t-86 -29.5q-4 0 -8.5 4t-8 9.5t-5.5 11.5t-1 9q7 24 30 38.5t47.5 29
t43.5 33t19 49.5v10zM183 143q-24 0 -33 -10.5t-15.5 -22.5t-17.5 -22.5t-39 -10.5q0 -10 4.5 -24t18.5 -14q1 0 14 15t28 33.5t27.5 35t12.5 20.5zM147 0q-5 -2 -7 -7q2 -6 9.5 -7t12.5 -1q0 5 -3 10t-9 5h-3zM160 -113v-9q5 0 11.5 1.5t8.5 7.5h-20zM80 -200q-8 -5 -8 -15
q10 0 15 8z" />
    <glyph glyph-name="cid14" unicode="-" horiz-adv-x="382" 
d="M40 240v87h300v-87h-300zM208 293q0 5 -1 7l-3.5 7t-3.5 6q-6 -2 -7.5 -8.5t-1.5 -11.5h17zM233 253q1 3 -3 3t-3 -3q0 -3 3 -3t3 3z" />
    <glyph glyph-name="cid14" unicode="&#x2011;" horiz-adv-x="382" 
d="M40 240v87h300v-87h-300zM208 293q0 5 -1 7l-3.5 7t-3.5 6q-6 -2 -7.5 -8.5t-1.5 -11.5h17zM233 253q1 3 -3 3t-3 -3q0 -3 3 -3t3 3z" />
    <glyph glyph-name="cid15" unicode="." horiz-adv-x="340" 
d="M261 70q0 -40 -24.5 -68.5t-66.5 -28.5q-45 0 -71 27.5t-26 69.5q0 45 27 71t72 26q42 0 65.5 -29t23.5 -68zM160 120q5 0 5 6.5t-5 6.5t-5 -6.5t5 -6.5z" />
    <glyph glyph-name="cid16" unicode="/" horiz-adv-x="425" 
d="M400 807q5 0 6 -5.5t1 -8.5q0 -12 -3.5 -27.5t-10.5 -28.5t-18.5 -22t-27.5 -9q-8 0 -11.5 5.5t-5.5 12t-5 12t-11 5.5q-11 0 -21 -8v7q0 4 1.5 15t5 22.5t8.5 20.5t12 9h80zM393 787q3 0 3 3t-3 3q-3 1 -3 -3t3 -3zM283 700q20 0 44.5 -7.5t46.5 -7.5q0 -25 -7.5 -53.5
t-18 -57.5t-22 -56.5t-19.5 -50.5q-9 0 -11.5 -2t-2 -5t2 -6.5t1.5 -6.5h3v-7l-6 -18.5t-15 -48.5t-21 -67.5t-23.5 -76t-22.5 -74.5t-19 -62q-8 -24 -18.5 -35.5t-41.5 -11.5l-6 1q-1 0 -5 2t-8.5 4t-8.5 4.5t-5 2.5h-7q0 -1 -3 -6t-3 -7q-1 -1 -1 -4q0 -9 11.5 -13.5
t26 -8.5t26 -8.5t11.5 -14.5q0 -24 -7 -48t-21 -43q0 9 -11 16t-25.5 11.5t-29 6.5t-20.5 2v4l11 37t29 97t41 136t46.5 153t46 148t39.5 122l20 60h3zM260 600q1 -3 3.5 -9.5t6 -14t6.5 -14t4 -9.5l1 27q0 15 -1 27t-7 26q-13 -9 -13 -27v-6zM227 485q4 0 11 1t9 7
q-2 6 -5.5 7t-8.5 1q-4 0 -6 -1v-15zM249 307q0 17 -3 26t-21 9q0 -1 0.5 -4.5t1.5 -4.5q2 -6 7 -16t6 -10h9zM167 147q2 11 -4 12.5t-12 1.5q-10 0 -21.5 -5t-11.5 -17q25 0 49 8zM87 -117q0 -6 -4.5 -8t-9.5 -2q-13 0 -13 10q0 11 13 11q5 0 9.5 -2.5t4.5 -8.5zM34 -117
q0 -4 -0.5 -9.5t-6.5 -6.5q-1 2 -1 6q0 7 1.5 11t5.5 9q1 -3 1 -10zM127 -120q-5 0 -5 6.5t5 6.5t5 -6.5t-5 -6.5zM120 -147q-2 -4 -4 -11t-4 -13.5t-3.5 -11l-1.5 -4.5h-95q0 11 1.5 21t6.5 19l7 -13q8 9 20 9.5t24.5 -0.5t25.5 0t23 11v-7z" />
    <glyph glyph-name="cid17" unicode="0" horiz-adv-x="608" 
d="M500 536q0 -3 8 -10.5t18 -16t20 -15t14 -7.5q7 -31 7 -58.5v-58.5q0 -63 -13 -133t-43.5 -128.5t-82 -97t-128.5 -38.5q-17 0 -30 0.5t-30 6.5q13 2 17 12t4 21q0 10 -4 16t-4 14v4q14 -10 24 -15.5t26 -5.5q25 0 40.5 16.5t24.5 40t14.5 48.5t10.5 42q2 6 6 8.5t8.5 4
t7.5 4t3 10.5h-15q0 16 -0.5 57t-1 86.5t-1 86.5t-0.5 57q0 21 -3 59t-13.5 75.5t-30 65t-52.5 27.5q-22 0 -37 -14.5t-25 -35t-16 -42t-10 -35.5q-60 -6 -80 53h-3q-12 0 -22.5 -7t-18 -17.5t-12 -23t-4.5 -22.5q0 -14 16 -24.5t37 -17t42 -9.5t32 -3v-209v23t-1.5 16
t-6.5 9t-15 3q0 -2 0.5 -7t1.5 -11t1 -11.5v-8.5q-1 -5 -3.5 -16t-6 -24t-6.5 -24.5t-4 -15.5q3 -4 9.5 -8.5t10.5 -4.5q2 0 10 3.5t10 2.5q5 -1 9 -17t7 -36.5t6 -40t5 -26.5q0 -1 2 -8t4.5 -15t4.5 -15t2 -8v-7q0 -1 -3 -3.5t-4 -3.5v-3q0 -5 3.5 -7.5t3.5 -8.5v-7l-7 -40
q-2 -1 -6 -1q-37 0 -66 22t-50.5 56.5t-36.5 78t-24 86.5t-13 81.5t-4 63.5q0 62 13 131.5t44 127.5t82 96t128 38q34 0 74 -13t74.5 -36.5t57.5 -56.5t23 -73q-11 0 -22 -8l-7 -40v-4zM287 740q3 2 3 7t-3 6q-3 2 -3 -6.5t3 -6.5zM413 607q2 -6 5 -10q2 -4 4.5 -7t4.5 -3
q9 0 18 5t9 14q0 7 -1.5 11t-5.5 10q-3 -2 -8.5 -4l-11 -4t-10 -4t-4.5 -5v-3zM547 540q-6 2 -6.5 5.5t-0.5 7.5v7l7 -13v-7zM433 460q-3 -3 -12.5 -11t-9.5 -17l9 1q5 2 20 7t20 7q-4 5 -10.5 9t-13.5 4h-3zM543 460q-6 0 -10.5 -7.5t-5.5 -12.5q3 -1 10 -1q5 0 11 1.5
t6 9.5q0 3 -1 3q-2 6 -6 7h-4zM478 433q0 -5 2 -16t10 -11q3 0 7 4t7.5 8.5t6 9t2.5 5.5h-35zM200 253q-1 -3 -1.5 3t-0.5 14t0.5 14t1.5 3q3 -4 3 -17t-3 -17zM547 260q3 1 3 3.5t-3 3.5q-3 0 -3 -4t3 -3zM127 213q0 7 -7 7.5t-10 0.5q-17 0 -17 -14q0 -3 1 -8.5t6 -5.5
q8 0 17.5 5t9.5 15zM247 47q-5 0 -5 6.5t5 6.5t5 -6.5t-5 -6.5zM367 -7q3 1 3 3.5t-3 3.5t-3 -3t3 -4z" />
    <glyph glyph-name="cid18" unicode="1" horiz-adv-x="608" 
d="M413 53q5 0 24.5 -0.5t41 -4t38.5 -11.5t17 -24v-11t-7 -9h-447v40q0 1 7.5 3.5t12.5 3.5q6 1 20 3t30 4.5t30 4t20 1.5l13 7v593q0 1 -2.5 3.5l-3.5 3.5h-3q-19 0 -38 -3.5t-38 -3.5q-10 0 -19 3.5t-9 16.5q0 16 8 24t20 12.5t26 6t26 4.5q10 2 35.5 8t54.5 12.5
t54.5 12t35.5 7.5l13 1q6 0 16.5 -1.5t10.5 -12.5v-200l-7 -40q-9 1 -16 -2t-13.5 -7.5t-13 -8t-13.5 -3.5q-8 0 -10 6.5t-3 14t-2.5 14t-8.5 6.5q-8 0 -14 -8t-6 -16q0 -2 10 -15.5t23 -32t25 -39t16 -36.5q0 -1 2.5 -3.5l3.5 -3.5h4q6 0 8.5 8.5t7.5 11.5l10 -33v-300z
M253 640q2 0 10.5 3.5t9.5 3.5q16 0 20.5 -10.5t9 -23.5t15 -23.5t39.5 -10.5l30 1q1 0 3.5 2.5t2.5 4.5q0 6 -10.5 15t-24 18.5t-27 18t-18.5 14.5q4 5 9.5 12.5t5.5 15.5q-14 0 -27 -4t-28 -4q-13 0 -24 4t-24 4q0 -5 2 -11.5t5 -13.5t7.5 -11.5t10.5 -4.5h3zM253 313
q0 -4 1 -7.5t6 -5.5q1 2 1 7q0 4 -1 7.5t-7 5.5v-7zM380 120q1 0 3.5 2.5t3.5 4.5q0 2 0.5 8t1 13t1 13.5t0.5 8.5l-6 -1t-12 -3t-10.5 -5.5t-1.5 -7.5zM273 100l7 7t7 6q0 1 3 1q9 0 19.5 -7.5t22 -16.5t24 -16.5t25.5 -7.5q0 16 -8 34q-18 -5 -26 -1.5t-12.5 10t-9.5 12.5
t-17 6q-10 0 -22.5 -3.5t-12.5 -16.5v-7zM328 13q0 -6 5 -6t5 6.5t-5 6.5h-1q0 7 -5 7t-5 -7t5 -7h1zM332 20q-4 0 -4 -7q4 1 4 7z" />
    <glyph glyph-name="cid19" unicode="2" horiz-adv-x="608" 
d="M560 13q-4 10 -7.5 14.5t-8.5 5t-12 -0.5t-18 -1q0 -25 19 -38h-486v87q0 1 2.5 6l3.5 7l7 10.5t7 9.5q25 29 57.5 61.5t65.5 67.5t65 73t57 79t40 84t15 89q0 26 -6 52.5t-19 47.5t-34 34t-51 13h-15.5t-14.5 -1q-12 -4 -17 -18.5t-7.5 -34t-5.5 -40.5t-10.5 -39
t-23 -30t-43.5 -12q-12 0 -25 2.5t-24 8.5t-18 16t-7 24q0 48 27.5 81.5t67.5 55t86 31t83 9.5q46 0 89 -13t76 -38.5t52.5 -63.5t19.5 -89q0 -54 -28.5 -103t-70 -91.5t-89 -78t-86.5 -63.5l4.5 4.5t6.5 8t6 8t3 5.5q0 1 0.5 3t0.5 4q0 15 -13 29t-28 18v-4q0 -11 4 -21.5
t4 -22.5t-2.5 -19.5t-11.5 -19.5h13q-11 -12 -24 -21.5t-24.5 -19.5t-19 -21.5t-7.5 -27.5h375v-117zM280 753h-7v-13h7v13zM120 133q3 2 3 7t-3 7q-3 1 -3 -7t3 -7zM413 67q1 -4 2 -13.5t2 -20t2 -20t1 -13.5q4 3 14.5 13t20.5 20.5t18 20t8 12.5q0 8 -7.5 21t-16.5 13
q-5 0 -12.5 -1.5t-14.5 -5t-12 -8.5t-5 -11v-7zM133 0q2 1 4.5 3.5t2.5 3.5q0 6 -3 14t-8 15.5t-12 12.5t-14 5q-2 0 -3 -1q-2 0 -5 -3q-1 -2 -2 -3q0 -7 3.5 -15t9 -15t12 -12t12.5 -5h3zM553 -7l7 7v-7h-7z" />
    <glyph glyph-name="cid20" unicode="3" horiz-adv-x="608" 
d="M540 533q0 -6 -3 -17.5t-8.5 -22.5t-12 -19t-13.5 -8q-12 0 -17 9.5t-6.5 22t-0.5 24t1 16.5q-11 0 -14.5 -4t-5.5 -9t-4.5 -9t-11.5 -4q-13 0 -17.5 9.5t-8 21.5t-9 21.5t-19.5 9.5q-2 0 -3 -1q-2 0 -7 -2.5l-7 -3.5q-1 21 -4 46t-9 47q5 2 6 5.5t1 7.5v7q-11 0 -19.5 4
t-16 9.5l-15 11t-16.5 8.5q14 8 14 21q0 3 -4 7.5t-9.5 9t-11 7.5t-9.5 2q-2 0 -10 -6t-10 -7t-7 -4t-6 -3h-4q-6 0 -12.5 4t-10.5 9q9 7 20 10t23.5 4t24.5 0.5t22 -0.5q27 0 66.5 -6.5t76 -22t62 -41t25.5 -64.5v-100zM287 720q-3 0 -9.5 -1t-14 -2t-14 -2t-9.5 -2
q-1 0 -3.5 -2.5l-3.5 -3.5q-5 -21 -10 -48t-15 -51t-27.5 -40t-47.5 -16q-17 0 -33 6.5t-27 21.5l-1 27q0 20 2 29.5t7 12.5t15 2.5t27 -0.5q0 25 10.5 39.5t28 21t40 8t45.5 1.5zM100 573q5 0 5 7t-5 7t-5 -7t5 -7zM424 113q6 0 17 7t12 13q2 9 -5 15.5t-17.5 11t-21 6.5
t-16.5 1q-6 49 -17.5 84t-33.5 58.5t-56.5 35.5t-85.5 15q-8 1 -7.5 10.5t0.5 12.5q0 18 20.5 25t48.5 15.5t57.5 26t47.5 57.5q11 -15 21 -23t19 -15t17.5 -16t15.5 -26q2 -5 7 -7q-6 -8 -17 -11.5t-11 -15.5q0 -4 1 -6q34 -17 61.5 -35t46.5 -41t29 -52t10 -69
q0 -58 -24.5 -99t-64.5 -67.5t-90 -38.5t-101 -12q-41 0 -84.5 9t-79.5 30t-59.5 54.5t-23.5 83.5q0 30 21.5 43.5t48.5 13.5q8 0 16 -0.5t14 -6.5l-7 -7l8 -10q3 -5 6.5 -9t5.5 -7q3 -4 7 -7v7q-1 3 -6.5 13t-6.5 13q1 1 3 1q15 0 24 -20t14.5 -45.5t7.5 -49.5t4 -32
q1 -6 8 -15t15 -17t15 -14t9 -6v25q27 4 48 12t45 21q3 -8 6.5 -13t10.5 -5q0 1 1.5 5.5t2 10t-1 10.5t-6.5 6l27 53h13q2 0 13.5 -3t13.5 -4h4zM447 453v7h6v-7h-6zM473 440q2 -3 -0.5 -5.5t-5.5 -1.5q-3 2 1 6t5 1zM228 403q-11 0 -13.5 -12.5t-2.5 -19.5q11 0 13.5 12
t2.5 20zM393 382q-13 0 -13 -12t13 -12v24zM273 380h-13v-13h13v13zM560 193l-7 34q-9 -7 -14.5 -22t-5.5 -25q0 -5 2 -9.5t8 -4.5q7 0 12 9t5 15v3zM81 110q0 22 -6.5 34t-29.5 12q0 -16 9 -31t27 -15zM167 97q0 7 -2.5 12t-10.5 5t-13.5 -1.5t-13.5 -5.5q11 -1 22.5 -5
t17.5 -15v10zM515 91q-7 0 -14.5 -4t-7.5 -14q1 -2 2 -3q1 -3 5 -3q1 -1 3 -1q10 0 11 9.5t1 15.5zM400 27l-27 -7q3 -8 7.5 -14.5t12.5 -6.5q12 0 14 9t2 19h-9z" />
    <glyph glyph-name="cid21" unicode="4" horiz-adv-x="608" 
d="M487 177l-10 -10v-174h-160v174l-10 10h-145q0 18 -8 21.5t-21 3.5v-22h-106v87q0 32 15.5 50.5t34.5 29t36 15.5t20 11q1 1 1 4q0 10 -7 15t-7 15v6q31 48 62.5 94.5t64.5 92.5h3q7 0 11.5 -3.5t11.5 -3.5h7q-8 8 -11 13t-3 14q0 3 6.5 14t16 26t20.5 31t20.5 30t16 23
t7.5 9h124v-446l10 -10h93v-120h-93zM460 739q-5 0 -23.5 -6.5t-38.5 -15.5t-36 -18.5t-16 -15.5q0 -2 1 -3q10 6 17.5 6.5t18.5 0.5q16 0 30.5 -3.5t30.5 -3.5h9.5t6.5 7v52zM320 440q7 -3 11 -11t7 -18.5t6 -20.5t9 -17q7 0 7 7q0 2 -3 13.5t-4 13.5v3q0 11 3.5 20.5
t3.5 20.5q0 22 -13 34.5t-30 21.5v82q-9 0 -14 -1t-10 -8l-173 -260v-20h187q2 0 6.5 5.5t9 13t8 13.5t3.5 8q0 6 -2.5 10t-11.5 3v87zM460 467q-1 1 -2 3q-3 3 -5 3q0 1 -3 1q-8 0 -9.5 -6t-1.5 -11q0 -4 0.5 -10.5t2 -12.5t4.5 -10t7 -4h7v47zM453 387l-6 -7h6v7zM400 207
q2 2 7.5 8t12 12.5l12 12t8.5 7.5q1 1 6.5 1.5t11.5 2t11 4.5t5 8q0 3 -1 4q0 3 -3 10.5t-3 9.5l-3.5 3.5t-3.5 2.5h-47l-3 -3l-2 -2l-1 -1q-1 -1 -1 -3q0 -10 4 -18t4 -17q0 -7 -3.5 -12t-8 -9.5t-8 -9.5t-3.5 -11h9zM347 180h-14v-7h14v7zM440 0q1 0 6 5t7 8q1 1 1 4
q0 2 -1 3q-14 -4 -21 1t-7 15q0 9 5.5 12t12 6t12 7t5.5 15q0 20 -4.5 32.5t-25.5 12.5q-17 0 -28 -2.5t-29 -11.5v-7q4 -6 15.5 -19t11.5 -24v-4q-2 -6 -7.5 -11.5t-11.5 -10.5t-10.5 -10t-4.5 -11q0 -3 1 -3q0 -4 3 -5q1 -1 3 -2h67z" />
    <glyph glyph-name="cid22" unicode="5" horiz-adv-x="608" 
d="M293 400q-3 3 -10.5 9t-16.5 14l-18 16t-15 14l57 1q55 0 106.5 -13.5t91 -42t63 -73t23.5 -105.5q0 -62 -26 -108.5t-68.5 -77.5t-96.5 -46t-110 -15q-39 0 -81 10.5t-77.5 32t-58.5 55t-23 79.5q0 13 7 24t18 18t24 11t25 4q28 0 43 -11.5t22 -29.5t8.5 -40t3 -42
t6 -35.5t17.5 -21.5l36 -1q45 0 73 18t44 47t21.5 66.5t5.5 75.5v47q-24 15 -35 33t-22.5 33t-30 24.5t-58.5 9.5q-24 0 -47 -3.5t-47 -3.5q-13 0 -24 1.5t-16 18.5l-1 34q0 73 6.5 146.5t14.5 146.5q2 -3 12.5 -10.5t13.5 -9.5h4q7 0 12 5.5t8 13t4 15.5t1 13h118l-7 -14
v-3q0 -6 5 -15t12 -9q11 0 19 9t11 18q1 1 0 6q-1 1 -1 4h-26l234 4v-127h-347q-2 3 -9 10t-15 14t-15 12t-10 5q-6 0 -12 -1.5t-6 -9.5q0 -5 5.5 -10t12.5 -9t13.5 -7t8.5 -4t4.5 -3.5t2.5 -3.5l-13 -140q-2 0 -7 -2.5l-7 -3.5q-1 -1 -1 -4t1 -3q5 -3 15.5 -5.5t21.5 -4
t19.5 -2.5t10.5 -1q-14 -4 -23 -5.5t-21 -1.5q-15 0 -29 9t-24 9q0 -7 2.5 -11.5t6 -9t6 -9t2.5 -11.5v-4q0 -1 -3.5 -9.5t-3.5 -10.5q0 -9 3.5 -11.5t9.5 -2.5q7 0 13 3.5t11 7.5t10.5 7.5t12.5 3.5q4 0 8 -1t6 -7h80zM507 740h-9q0 -5 1.5 -11.5t7.5 -8.5v20zM487 653h-7
v-13h7v13zM313 400q0 -2 5 -3.5t11 -2l12 -1t9 -0.5q9 0 20.5 2t16.5 12q-3 5 -7 6h-7q-6 0 -16.5 -1t-20 -2.5t-16.5 -2l-7 -0.5v-7zM480 393q-1 1 -6 1q-9 0 -12 -5t-3 -13q0 -14 10 -22t23 -8q6 0 14 1t8 10q0 2 -1 3zM534 197q0 2 -1 3q-1 2 -6 7t-7 6q-1 -2 -1 -6
q0 -14 14 -14q1 1 1 4zM129 189q-15 0 -32.5 -6.5t-17.5 -25.5q0 -8 3 -13t12 -5q7 0 13.5 5.5t11 13t7.5 16t3 15.5zM540 133q-16 -7 -16 -29q9 0 12.5 7t3.5 16v6zM353 50q0 -23 8.5 -38.5t33.5 -15.5q0 7 -1 11l-2 8t-2 9t-1 14q10 0 15 -4t8 -9t5 -9t6 -4q3 0 4 1
q6 10 10 17t4 17q0 9 -3.5 14l-7 10t-5.5 11.5t2 17.5q-8 -5 -12 -13t-7.5 -15.5t-8.5 -13t-15 -5.5h-11q-1 1 -6.5 4t-6.5 3t-3.5 -2.5t-3.5 -4.5v-3zM480 68q-8 0 -13 -8h13v8zM240 13q1 3 -3 3t-4 -3q1 -3 3.5 -3t3.5 3z" />
    <glyph glyph-name="cid23" unicode="6" horiz-adv-x="608" 
d="M573 193q-2 -3 -5 -4.5t-6.5 -2.5t-6 -3t-2.5 -7q0 -3 2 -4.5t5 -2.5t5 -2.5t2 -5.5q0 -47 -26 -82t-65 -58.5t-84 -35.5t-82 -12q-68 0 -121 26t-89 70t-55 102t-19 122q0 62 18.5 121t51 111.5t78 97t99 76.5t113.5 50t122 18q12 0 15.5 -4t3.5 -16v-11.5t-7 -8.5
q-44 -14 -96 -41t-97 -64.5t-75.5 -84.5t-30.5 -101q18 0 35.5 4t34.5 8.5t35 8.5t37 4q49 0 88 -18t66.5 -48.5t42 -72t14.5 -89.5zM187 320q0 17 -7 27.5t-14.5 21t-12 23.5t-0.5 35q-1 6 -7 6.5t-10 0.5q-11 0 -17 -3.5t-12 -17.5q-10 -22 -16.5 -31t-11.5 -13.5t-9 -8
t-10 -13.5q-6 -11 1 -20.5t18 -16.5t23.5 -11.5t17.5 -5.5q2 0 10 6.5t10 7.5q3 0 9.5 1t14 2t14 2t9.5 1v7zM401 360q0 7 -3.5 20.5t-14.5 13.5q-7 0 -8.5 -6t-1.5 -11q0 -22 20 -37q7 1 7.5 8.5t0.5 11.5zM487 87q-14 0 -27.5 7t-13.5 23q0 14 17 23.5t37 17.5t37 16.5
t17 21.5q0 18 -9 32t-19 28t-17 30.5t-2 40.5l-7 6q-2 -14 -8 -32.5t-6 -33.5q0 -11 4 -19t4 -20q0 -9 -2.5 -22t-18.5 -13h-60q-2 0 -4 -3t-4 -7q-3 -4 -5 -10q-1 25 -2.5 62t-10.5 70.5t-29.5 57.5t-59.5 24q-23 0 -50 -6t-41 -28l-1 -63q0 -16 0.5 -41.5t3 -55t9 -59
t18 -54t29 -39.5t43.5 -15q20 0 34 9.5t23.5 24.5t16 33t10.5 34q10 -8 19 -19t9 -25q0 -13 -6.5 -16.5t-14 -4.5t-14 -3t-6.5 -12v-7q17 -6 30 -6.5t30 -0.5h27l20 40v14zM127 243q0 6 -5 15t-12 9q-24 0 -44 -14.5t-20 -40.5q0 -16 4 -25.5t17 -26.5q7 4 13 17t7 16
q3 12 9.5 21.5t13.5 15.5q8 7 17 13zM320 -7q1 -2 6 -7t7 -6q10 -2 14 6.5t4 14.5l-11 -1z" />
    <glyph glyph-name="cid24" unicode="7" horiz-adv-x="608" 
d="M293 0q-2 -6 -5 -10q-2 -4 -4 -7t-4 -3h-140q-13 0 -17 10.5t-4 18.5q0 13 3 18t11 20q7 12 28.5 50.5t49.5 89.5t60 109t60 109.5t48.5 90t27.5 51.5l20 40v3q0 6 -7 13t-16 12.5t-18 9.5t-13 4v-22h-258q0 2 -2 6q-1 3 -6 13.5t-7 13.5q-1 1 -3 1q-3 0 -4 -1t-6.5 -7
t-6.5 -6q-2 -2 -7.5 -5t-12 -6t-12.5 -5.5t-8 -3.5v153h507v-107zM533 740q5 0 5 6.5t-5 6.5t-5 -6.5t5 -6.5zM130 747q-10 0 -16.5 -13t-6.5 -21q2 -1 6 -1q19 0 27 21q0 1 -2.5 6.5t-4.5 7.5h-3zM393 713q1 1 1 6t-1 9t-6 5q-4 1 -15.5 1h-14.5q-10 0 -20 -3.5t-19.5 -6.5
t-19 -5t-18.5 1q3 -10 11.5 -18.5t19 -15t22.5 -10t21 -3.5h6zM273 720q5 0 5 6.5t-5 6.5t-5 -6.5t5 -6.5zM460 643q0 -2 4 -9.5t9 -16t9 -15.5t5 -9q1 2 6.5 7t6.5 7q1 0 1 3q0 5 -4.5 11t-10.5 11t-13 9t-13 6v-4zM493 553h-6v-6h6v6zM453 547v-7l14 7h-14zM358 333
q0 -7 4.5 -20t14.5 -13q6 0 8.5 4.5t3 10t0.5 11v7.5h-31zM253 153q-1 0 -3.5 2.5t-2.5 4.5q-1 4 -1 17t1 16q-6 -8 -10 -16t-4 -17q0 -14 5.5 -19t13 -5.5t16.5 1.5t16 2q0 -8 -2 -12.5t-4.5 -8.5t-4.5 -8.5t-2 -11.5q10 0 18 5.5t13.5 13.5t8.5 17.5t3 18.5h-61zM260 113
h-13v-13h13v13zM200 20q-1 3 -7 7q-5 -4 -8 -9.5t-5 -10.5q2 -1 7 -1q13 0 13 11v3z" />
    <glyph glyph-name="cid25" unicode="8" horiz-adv-x="608" 
d="M437 740q22 0 41 -16t33 -39t21.5 -48t7.5 -44q0 -33 -19 -60t-41.5 -49t-41.5 -39.5t-19 -31.5q0 -4 1 -6q30 -20 56 -41.5t44.5 -47.5t29.5 -57t11 -68q0 -58 -23.5 -99.5t-61.5 -68.5t-87.5 -39.5t-101.5 -12.5q-27 0 -55 1t-52 13q12 8 18 11.5t9 7t3.5 9t0.5 16.5
q-23 0 -33 4.5t-12.5 10.5t-1 13.5t0.5 13.5t-7 10t-24 4q-12 0 -16.5 -10.5t-4.5 -20.5q0 -8 3.5 -13.5t7 -11.5l7 -12t3.5 -14q-24 0 -41.5 17.5t-29.5 42t-17.5 51t-5.5 44.5q0 30 11.5 56t30 47.5t42.5 39t49 30.5v14q-23 22 -45 44t-38.5 47t-26.5 53t-10 62
q0 14 2.5 32.5t8 37t14.5 34t22 23.5q-15 -28 -23.5 -45.5t-8.5 -45.5q9 0 18 10.5t19 22.5t21.5 22.5t26.5 10.5q7 0 13.5 -6t12.5 -12t11 -10t10 0q2 -28 15.5 -62.5t35.5 -63t51.5 -45.5t64.5 -9q0 -2 2.5 -7l3.5 -7h4q8 0 9 11t1 16v13q-1 1 -4 7t-3 7q0 25 7 51t7 52
q0 17 -3.5 33.5t-3.5 33.5v3q9 -3 18.5 -11.5t18 -19t16 -20.5t13.5 -16q6 2 17 1t11 -11q0 -4 -3.5 -6.5t-7.5 -6t-7.5 -8t-3.5 -12.5q0 -9 3.5 -19.5t17.5 -10.5q3 0 5.5 9t4 21t2.5 23t1 14q0 4 -17.5 18t-39 29.5t-39 27l-17.5 11.5q-21 22 -36.5 31.5t-43.5 9.5
q-24 0 -36.5 -7.5t-21.5 -18.5t-17.5 -24t-24.5 -24q-6 2 -7 7.5t-1 10.5q0 8 3.5 14t17.5 1q-4 32 7 42t27.5 12t34 5t25.5 21q-4 6 -7 7h-3q-36 0 -54 -9.5t-29.5 -20.5t-22 -20.5t-31.5 -9.5h-7l-26 7q15 19 37 30.5t47.5 18t51 9t47.5 2.5h29t35 -3t29.5 -9.5
t12.5 -19.5l11 -2l1 1q0 1 2 3q1 2 3 3h4zM373 753q-3 1 -10 1q-13 0 -19 -10.5t-6 -23.5h9zM213 413q-3 4 -4 11.5t-3 14.5t-4.5 13t-8.5 8q-12 -9 -26.5 -26t-14.5 -35q14 0 31 6t30 8zM401 130q0 14 -7.5 34.5t-20 42.5t-29 43.5t-34.5 37t-36 23t-34 2.5
q-22 -7 -29.5 -28.5t-12.5 -45t-14 -41.5t-34 -18q-6 0 -11.5 6.5t-12.5 14t-17 14t-24 6.5q-11 0 -17.5 -5.5t-10.5 -14t-5 -18.5t-1 -18q18 0 32 4.5t30 4.5q26 0 42.5 -11t28 -27.5t20.5 -35.5t21.5 -35.5t29.5 -27.5t45 -11q48 0 74.5 28t26.5 76zM300 300q5 0 5 6.5
t-5 6.5t-5 -6.5t5 -6.5zM194 271q0 11 -6 20t-15 16q-1 0 -3.5 -2.5t-2.5 -4.5q0 -29 27 -29zM555 204q0 12 -6 21t-19 9q-9 0 -16.5 -4t-17.5 -4q-13 0 -24 6.5t-21.5 14.5t-23 14.5t-28.5 6.5q0 -14 6 -30.5t8 -30.5q6 4 10 5.5t10 1.5q9 0 15 -4t15 -4q8 0 14 4t13 4
q17 0 31.5 -5t33.5 -5zM327 7q3 0 3 3t-3 3q-3 1 -3 -3t3 -3zM147 -7q-5 0 -5 7t5 7t5 -7t-5 -7zM167 -7q-1 -3 -3.5 -3t-3.5 3t3 3t4 -3z" />
    <glyph glyph-name="cid26" unicode="9" horiz-adv-x="608" 
d="M210 -7q-4 0 -7 4.5t-6.5 9.5t-8 9.5t-11.5 4.5q-12 0 -18.5 -7.5t-11 -16.5t-10 -16.5t-16.5 -7.5q-14 0 -18 3.5t-4 16.5q0 4 0.5 11.5t7.5 8.5q37 19 83.5 44.5t87 58.5t68.5 74.5t28 92.5q0 5 -0.5 10t-6.5 7q-15 -5 -36 -10t-38 -5q0 10 3 19t3 19q-6 0 -9 -6.5
t-6.5 -15t-9 -15t-16.5 -6.5q-51 0 -93.5 17t-73 47.5t-48 73t-17.5 92.5q0 59 21 106.5t57.5 81t86 51.5t106.5 18q70 0 122 -26.5t86.5 -71t51.5 -103.5t17 -123l-1 -43q-13 -24 -40.5 -35.5t-52.5 -11.5q-11 0 -19 5.5t-15.5 11.5t-15 11.5t-17.5 5.5h-6
q-7 -15 -10.5 -26t-3.5 -25q0 -11 7 -20t17 -15.5t22 -10.5t21 -4q14 0 26 7.5t27 7.5h8.5t11.5 -1t10.5 -3.5t4.5 -6.5q0 -2 -1 -3q-12 -26 -37 -67t-56.5 -79.5t-66 -66.5t-64.5 -28q-3 0 -3 1q-5 5 -6.5 13t-1 16.5t2 16.5t1.5 13q-7 0 -18.5 -2.5t-11.5 -13.5
q0 -5 2 -13t4 -16.5t4.5 -16t3.5 -11.5q-4 -5 -9 -8t-11 -5l-15 -6t-20.5 -8.5t-19.5 -8t-12 -4.5h-3zM394 467q0 32 -1 77t-12 85.5t-36.5 69t-74.5 28.5q-9 0 -18.5 -13.5t-18 -29.5t-14 -29.5t-6.5 -14.5q-24 15 -49 15q0 -17 13.5 -33.5t22.5 -28.5q1 -33 3.5 -75.5
t14 -81t37 -64.5t72.5 -26h17t22 2.5t19 8t8 16.5zM480 633h-13v-13h13v13zM412 593q0 -11 4.5 -18.5t4.5 -18.5t-7.5 -18t-7.5 -17q0 -4 1 -16t3.5 -25t7 -23.5t12.5 -10.5q6 0 15 5t9 12q0 14 -7.5 28.5t-7.5 30.5q0 9 3.5 14.5t7.5 10t7.5 9.5t3.5 13q0 3 -1 13.5
t-7 10.5h-41zM507 547q-2 -1 -4.5 -3.5t-2.5 -3.5q0 -10 4 -22t16 -12q9 0 15 6t6 14q0 12 -10.5 16.5t-20.5 4.5h-3zM107 487q-3 5 -7 6q-6 -2 -7.5 -9.5t-1.5 -11.5q5 0 10.5 2.5t5.5 8.5v4zM469 248q-18 0 -31 -5t-35 -5q0 -14 8.5 -28.5t15.5 -22.5q1 -1 3 -1q7 0 14 8
t12.5 18.5t9 20.5t3.5 15zM347 127q3 0 3 3t-3 3q-3 1 -3 -3t3 -3z" />
    <glyph glyph-name="cid27" unicode=":" horiz-adv-x="340" 
d="M261 468q0 -45 -26 -67t-68 -22q-43 0 -68.5 22t-25.5 67q0 48 23 73.5t71 25.5t71 -25.5t23 -73.5zM167 493l-40 7h-9q0 -11 13 -19t23 -8q13 0 13 14v6zM261 67q0 -40 -25.5 -67t-65.5 -27q-21 0 -33.5 4.5t-12.5 21.5l-11 1q-1 0 -6.5 -3.5t-6.5 -3.5q-8 4 -13 14
t-8 21.5t-4.5 23t-1.5 18.5q0 45 27 71t72 26q11 0 25 -4t27 -11.5t21.5 -18.5t8.5 -24q-15 0 -39.5 -1t-41.5 -8q4 -12 12 -13t16 -1q17 0 29 1.5t30 5.5zM127 147v-7l6 7h-6zM153 100q1 0 1 3q0 6 -4.5 8.5t-9.5 2.5q-8 0 -11 -5t-3 -12q0 -3 1 -4z" />
    <glyph glyph-name="cid28" unicode=";" horiz-adv-x="340" 
d="M93 528q12 0 17.5 6t12 13.5t16 14t28.5 6.5q45 0 69.5 -28.5t24.5 -71.5q0 -42 -26 -68.5t-68 -26.5q-45 0 -70 27.5t-25 69.5q0 16 2.5 35t18.5 28v-5zM223 480q6 0 9.5 4.5t5.5 10.5t3 12.5t1 10.5q-11 0 -20 -8.5t-9 -19.5v-3q4 -6 7 -7h3zM167 393v-6l6 6h-6z
M261 50q0 -39 -15.5 -88.5t-43.5 -93t-67 -73t-85 -29.5q-4 0 -8.5 4t-8 9.5t-5.5 11.5t-1 9q7 24 30 38.5t47.5 29t43.5 33t19 49.5q0 25 -14.5 33.5t-32.5 16t-32.5 22.5t-14.5 53q0 42 25.5 67t67.5 25q37 0 60.5 -15.5t33.5 -51.5zM93 100l-6 7q-1 -3 -1 -10l1 -10
q0 -3 1 -8.5t2 -12t2 -12t1 -7.5v53zM160 -153q-1 4 -7 6q0 1 -3 1q-6 0 -9 -5.5t-3 -10.5q5 0 12.5 1t9.5 8z" />
    <glyph glyph-name="cid29" unicode="&#x3c;" horiz-adv-x="615" 
d="M553 147q1 0 1 -2.5v-3.5q0 -11 -6 -23.5t-16 -19.5q0 -5 -5 -5q-2 0 -3 1q-2 -1 -7 -1q-16 0 -24 5.5t-26 14.5q-23 12 -57 30t-65.5 35t-54.5 29.5l-23 12.5l-7 10h38l2 6q2 8 0 11q-2 12 -6.5 19.5t-16.5 7.5q-15 0 -24 -14t-9 -28q-2 0 -4 1t-5 3q-2 2 -4.5 2.5
t-3.5 1.5q-12 6 -32 16.5t-40.5 21t-36 19t-18.5 10.5q-7 3 -17 9t-19.5 11t-16.5 9l-7 4v47l13 13l22 11.5t57.5 30t79.5 42t89 47t87 45t72 37.5q5 3 14 7.5t17 9t14.5 7.5t7.5 3l7 1q7 0 13.5 -6t11 -14.5t7 -17t2.5 -13.5q0 -2 -1 -3q-52 -29 -103 -56.5t-103 -50.5
q-1 -1 -4 -1t-3 1l-13 33h-5q0 -2 -1 -9.5t-1 -10.5q0 -1 3.5 -9.5t3.5 -10.5q-1 -2 -2 -3q-2 -3 -5 -3l-147 -74q2 3 7.5 7t11.5 8.5t10.5 8.5t4.5 6v4q-2 3 -7 13t-7 13q-2 -4 -12 -17t-20 -27t-17 -26.5t-4 -15.5l13 -14zM93 367l-26 13q-1 -1 -1 -3q0 -8 10.5 -13
t16.5 -5v8zM533 113q3 1 3 3.5t-3 3.5t-3 -3t3 -4zM532 98q1 3 -0.5 6t-4.5 3q-5 0 -5.5 -5.5t2.5 -7.5q6 2 8 4z" />
    <glyph glyph-name="cid30" unicode="=" horiz-adv-x="615" 
d="M179 453q0 9 -4 13t-10 5.5t-13 1t-12 -0.5v-19h-113v60h553v-60h-401zM562 473q0 3 -2 7q-3 3 -13 13.5t-14 13.5h-6l26 -34h9zM27 213v67h553v-67h-553z" />
    <glyph glyph-name="cid31" unicode="&#x3e;" horiz-adv-x="615" 
d="M553 400q21 -15 21 -37q0 -19 -11.5 -26.5t-29.5 -16.5l-106 -53q4 23 -5.5 37t-34.5 9q8 6 20.5 11t24.5 11t20.5 14t8.5 19l-1 5l-400 207q-3 1 -7 7v3q0 6 2.5 14t7 16t10.5 14t14 7q4 0 6 -1l94 -47zM155 573q0 9 -8 14v-14h8zM413 453q5 0 5 7t-5 7t-5 -7t5 -7z
M367 453v-13q8 5 8 13h-8zM433 440v-7h7zM373 300q-5 0 -5 6.5t5 6.5t5 -6.5t-5 -6.5zM360 300q-10 -6 -15.5 -11.5t-5.5 -14.5q0 -12 9.5 -23t18.5 -18q-5 -2 -17.5 -9t-26 -14.5t-26 -14t-17.5 -8.5q-9 -5 -22.5 -11.5t-26 -13t-22 -11l-9.5 -4.5h-6q0 11 -2.5 24t-4.5 22
q-2 -2 -5 -7.5t-6 -12t-5.5 -12t-3.5 -8.5l-1 -6q0 -5 1 -8.5t6 -5.5q-17 -13 -39 -26.5t-44 -13.5q-15 0 -23 14.5t-8 29.5q0 6 0.5 9.5t7.5 6.5z" />
    <glyph glyph-name="cid32" unicode="?" horiz-adv-x="493" 
d="M80 690q0 31 18.5 54t51.5 23q44 0 93 -22t90 -57.5t67.5 -79.5t26.5 -88q0 -53 -15.5 -80.5t-41 -44.5t-58 -32t-65.5 -43q-8 -6 -13.5 -19.5l-11 -27t-11 -24t-11.5 -10.5q-1 0 -7 7t-13 16t-13 16.5t-7 8.5l-7 -14q-5 10 -6 18t-1 18q0 9 8.5 14t19 10.5t19 13.5
t8.5 23q0 3 -1 3q-9 13 -12.5 17t-13.5 4l-7 -1q-3 0 -13.5 -2.5t-13.5 -3.5v6q0 28 28 45.5t65 31.5t73.5 28t53.5 35q0 -1 2.5 -6.5t4.5 -6.5q0 -1 3 -1q2 0 3 1q3 8 9 15t11.5 13.5t10 13.5t4.5 15q0 10 -5.5 20.5t-14 21t-18 19.5t-17.5 15q-7 -1 -7 -10v-12
q0 -13 1 -22t6 -22l-20 -1q-24 0 -35 3.5t-14.5 9t-3.5 11.5t-1.5 12t-8 11t-23.5 7q-7 2 -15 0l-9 -2v-39l-4 1h-6q-9 1 -24.5 2.5t-31.5 5t-30 9.5t-20 16q19 18 33.5 35.5t14.5 44.5q0 3 -0.5 13.5t-1.5 13.5q-4 10 -9.5 12t-13.5 2q-9 0 -15 -10t-11 -23.5t-10.5 -27
t-13.5 -20.5v17zM118 693q0 9 9 14q8 -5 8 -14h-17zM87 653q-3 0 -3 4t3 3t3 -3.5t-3 -3.5zM100 633q-5 0 -5 7h-2q-5 0 -5 6.5t5 6.5t5 -6h2q5 0 5 -7t-5 -7zM367 553q-3 0 -3 4t3 3t3 -3.5t-3 -3.5zM253 407q5 0 5 6.5t-5 6.5t-5 -6.5t5 -6.5zM160 253q-3 -1 -3 7t3 7
q3 -2 3 -7t-3 -7zM167 240q-5 0 -5 6.5t5 6.5t5 -6.5t-5 -6.5zM287 70q0 -22 -8.5 -40t-23 -30.5t-33 -19.5t-39.5 -7q-42 0 -69.5 26.5t-27.5 68.5q0 48 26.5 77t77.5 29q22 0 39.5 -8.5t30.5 -23t20 -33.5t7 -39zM193 162h-10t-14 -1.5t-12.5 -5t-5.5 -9.5q2 0 9 0.5
t14.5 1.5t13 2t5.5 3v9zM133 33q6 5 17.5 14.5t11.5 21.5q-12 0 -23.5 -6t-18.5 -16z" />
    <glyph glyph-name="cid33" unicode="@" horiz-adv-x="999" 
d="M140 440q0 -1 -3 -1t-4 1t-6.5 7t-6.5 6q-1 1 -3 1q-3 0 -4 -1q6 -9 10 -19t4 -21q0 -22 -4.5 -43.5t-9.5 -43.5t-9.5 -44.5t-4.5 -44.5q0 -81 26.5 -149t75 -117.5t116 -77t149.5 -27.5q62 0 112 13.5t109 33.5q3 1 10 1q24 0 24 -24q0 -13 -17.5 -23.5t-44 -19
t-58.5 -15t-61.5 -11t-52 -6.5t-30.5 -2q-92 0 -170 29.5t-134.5 83.5t-88 129.5t-31.5 167.5q0 112 41.5 208t113.5 166t168.5 110t206.5 40q94 0 170 -28t140 -99q1 -1 1 -3q0 -3 -1 -4q0 -1 -3 -6.5t-3 -6.5q0 -2 3 -13.5t3 -13.5t0.5 -7.5t0.5 -12t-0.5 -12t-0.5 -8.5
q19 -4 33.5 -7t23.5 -10.5t13.5 -21t4.5 -37.5q-15 0 -28.5 -12t-13.5 -27q0 -17 7.5 -30t7.5 -29q0 -13 -3.5 -20.5t-17.5 -18.5q-1 56 -9 105t-27 92t-52 78.5t-85 64.5l-8 4t-13 6t-12.5 6t-6.5 4t-3.5 7t-3.5 6q0 1 -3 1q-6 0 -8 -4t-8 -4q-27 0 -52 4t-52 4
q-22 0 -55.5 -4.5t-71 -13t-75.5 -21.5t-69.5 -30t-53 -38.5t-25.5 -46.5zM500 733v-13l13 13h-13zM620 733h-7v-13h7v13zM833 633q0 12 -6 13.5t-14 1.5l-13 -1q-4 -15 2 -18t14 -3q2 0 9.5 0.5t7.5 6.5zM880 600q-5 0 -5 6.5t5 6.5t5 -6.5t-5 -6.5zM890 267q2 0 8 -6.5
t12.5 -15t11.5 -16t5 -9.5q0 -30 -21.5 -62.5t-53 -58.5t-67 -43t-63.5 -17q0 10 -5 22.5t-17 12.5q-14 0 -15 -12.5t-1 -23.5q-10 0 -30 4t-40 12t-35 19.5t-15 26.5h49q1 0 3.5 2.5t3.5 4.5v3q0 2 -4.5 11t-11.5 19.5t-14 18.5t-11 8q-6 0 -10 -8t-6.5 -18.5t-3.5 -20.5
t-1 -13h-11l-13 -13t-20.5 -18t-23 -16t-20.5 -7h-3q3 5 8.5 8t11.5 6t10 7t4 12q0 13 -8.5 14t-18.5 1q-4 0 -16 -2t-23 -6.5t-17 -12.5t2 -20l13 -20h-40l7 13q-3 1 -10 1q-10 0 -14 -7t-12 -7q-30 0 -50 17.5t-32 43t-17 54.5t-5 51q0 54 18.5 114t53.5 110.5t84 83.5
t111 33q15 0 27.5 -6.5t23.5 -14t22 -14t23 -6.5q7 0 10 1q25 16 40.5 25t38.5 9q14 0 18 -3.5t4 -16.5q0 -14 -4.5 -28.5t-9.5 -29t-9.5 -28t-4.5 -25.5q0 -3 1 -3q0 -1 3 -3.5t3 -3.5q1 0 1 -3t-1 -4q-1 -4 -1.5 -9.5t-1.5 -10.5q-1 -6 -3 -13h-7q-13 19 -25 32t-35 13
v-12l60 -60v-5q0 -4 -0.5 -19t-3.5 -30.5t-8 -27.5t-14 -11q6 -2 6 -8.5v-10.5t-0.5 -12.5l-1 -17t-2 -15t-3.5 -6.5h-36l-3 -6q-2 -9 -1 -11q3 -5 8 -9t11.5 -8.5t14 -11.5t13.5 -17q1 -2 6 -7.5t7 -6.5h27q35 0 61.5 16.5t46.5 42t34.5 56t24.5 59.5h3zM487 493
q6 0 9.5 11t3.5 16t-2 9.5t-8 4.5t-16 -3.5t-19.5 -9t-16.5 -13t-7 -15.5h56zM580 467q0 1 -5 3.5t-8 2.5l-24 1q-28 0 -49.5 -13.5t-37 -35.5t-26.5 -50t-18.5 -57t-11.5 -56.5t-7 -48.5q-6 -3 -17 -10t-11 -17h4.5t3.5 1q2 0 10.5 3t9.5 3q6 0 11.5 -10.5t13 -23t17.5 -23
t25 -10.5q24 0 39.5 9t25 24t14.5 34.5t8 39.5q4 21 9.5 53.5t10.5 63.5t9 53.5t4 23.5v40zM401 413q0 5 -1 7q-16 5 -31 6.5t-31 1.5q0 -35 36 -35q10 0 18.5 4.5t8.5 15.5zM587 393q-3 0 -5.5 -11.5t-4.5 -25.5t-3 -27t-1 -17q0 -17 8 -19t26 -2q0 26 -5 49t-5 53h-10z
M67 227q5 0 5 6.5t-5 6.5t-5 -6.5t5 -6.5zM93 120q0 1 -2 1q-5 0 -9 -5t-7.5 -11t-5.5 -11.5t-2 -6.5q-1 -1 -1 -4q0 -17 17 -17q1 0 9.5 0.5t7.5 6.5zM133 -42q9 0 14 9q-3 5 -7 6q-1 1 -3 1q-3 0 -4 -1v-15zM180 -40q5 0 5 6.5t-5 6.5t-5 -6.5t5 -6.5zM580 -153
q-2 5 -5.5 6t-7.5 1q-5 0 -7 -1q2 -5 5.5 -6t7.5 -1q5 0 7 1z" />
    <glyph glyph-name="cid34" unicode="A" horiz-adv-x="761" 
d="M660 67q6 -16 20 -20t29 -5.5t26.5 -6t11.5 -22.5q0 -12 -4 -17t-18 -5q0 9 4.5 11.5t4.5 10.5q0 14 -14 14q-3 0 -15 -4t-26 -9t-26 -9t-13 -5q-1 0 -3.5 -2.5t-3.5 -4.5h-233q-7 0 -7 9v11q0 18 12.5 22.5t28 6t28 3.5t12.5 14q0 22 -10.5 41.5t-10.5 40.5v6l54 13
q-17 19 -41 37t-51 32t-55 23t-53 10l-27 -2q-5 -2 -7.5 -8t-3.5 -12t-1.5 -11t-0.5 -6h-54q-5 0 -12.5 -20t-15.5 -46.5t-13.5 -53t-5.5 -38.5q0 -15 12.5 -18t28 -4.5t28 -6.5t12.5 -23v-11t-7 -9h-227q-7 0 -7 9v11q0 16 9.5 21.5t22 7t26.5 2.5t23 9q7 8 11 18t7 21
t6 21.5t9 19.5q9 -2 11.5 -8.5t2 -14.5t-3 -15.5t-2.5 -11.5q17 0 28 17.5t11 36.5q0 20 -10.5 37.5t-10.5 38.5v5q0 1 1 2q0 3 2.5 13l3.5 14l165 506h102q1 0 3.5 -2.5l3.5 -3.5q5 -13 13 -32t15.5 -39t13 -38.5t5.5 -30.5q0 -5 -1 -7q-1 5 -5 6t-8 1q-13 0 -23.5 -7
t-22.5 -7q-21 0 -35 12t-26 28q-5 -2 -6 -6q-1 -1 -1 -3q0 -18 5 -35t11 -34t11 -34.5t5 -36.5q2 0 19 13t36 30.5t34 34.5t13 25l7 -14l66 -200v-10q-19 0 -26 -16q-13 7 -17 20.5t-4 26.5q0 14 7.5 21.5t7.5 20.5q0 8 -2.5 13t-11.5 5q-6 0 -17.5 -0.5t-23.5 -2.5
t-21.5 -6.5t-11.5 -11.5l-1 -26q0 -36 17 -62t58 -26q17 0 30 11t23 23l7 -13zM347 707q-3 5 -7 6q-1 1 -3 1q-9 0 -10.5 -8.5t-1.5 -14.5q5 0 13.5 2t8.5 10v4zM396 280q0 21 -5 36.5t-11 36.5l-60 187q0 2 -2.5 7t-4.5 6q0 1 -3 1t-3 -1q-6 -2 -7 -6q-2 -5 -5.5 -16.5
t-7.5 -24.5t-8 -24t-6 -15q-5 -17 -13 -44t-15.5 -52.5t-12.5 -44t-5 -19.5v-27h169zM527 256q0 6 -1.5 12t-9.5 6q-6 0 -8 -8t-2 -13q0 -3 1 -8t6 -5q11 0 12.5 4.5t1.5 11.5zM287 227q1 7 10.5 7h12.5q8 0 16 -0.5t14 -6.5h-53zM627 13q-3 9 -8 15.5t-14 6.5
q0 -9 2.5 -15.5t12.5 -6.5h7z" />
    <glyph glyph-name="cid35" unicode="B" horiz-adv-x="727" 
d="M643 327q34 -20 45.5 -54t11.5 -70q0 -45 -20 -82.5t-52.5 -64.5t-74.5 -42t-85 -15q-17 0 -34 14t-34 20q-6 -5 -18.5 -16.5t-14.5 -23.5h-287q0 2 -2.5 7t-4.5 7h-3q-6 0 -7.5 -3t-3.5 -6.5t-7 -6.5t-19 -3v45q0 1 8 3.5t12 3.5q3 1 10.5 2t16.5 1.5t16.5 1.5t10.5 2
q6 3 9.5 12.5t3.5 13.5v600q0 10 -12 16t-26.5 8t-27.5 2.5t-14 0.5q-6 3 -9.5 12.5t-3.5 14.5q0 4 2.5 12t3.5 8l394 -4h-40v-50h-67q-1 -2 -2 -3q-3 -3 -5 -3q-2 -3 -6 -8t-4 -6v-206q0 -6 -7 -6.5t-15 -1t-15 -3.5t-7 -12q0 -21 21 -31h33q36 0 66.5 8.5t53 26.5t35 45.5
t12.5 66.5q0 40 -14.5 74t-52.5 53q4 7 11.5 9.5t15.5 4.5t14 6t6 13q0 6 -1 10t-6 10h20q28 0 60 -10.5t58.5 -29t44 -45t17.5 -58.5v-4q-7 5 -9.5 10l-4.5 9t-5 6.5t-12 2.5q0 -12 5 -23t11 -20.5t11 -18t5 -15.5q0 -29 -20 -53t-44 -42.5t-44 -31.5t-20 -20
q0 -9 13.5 -15.5t31 -13t34 -13t22.5 -15.5q-15 -6 -28 -14.5t-13 -26.5q0 -16 9 -28t25 -12h4t8 0.5t7.5 2.5t3.5 5v60zM560 653v-8q8 0 13 8h-13zM534 570q0 15 -6.5 22.5t-24.5 7.5q-10 0 -10 -8.5v-14.5q0 -10 2.5 -23.5t17.5 -13.5q14 0 17.5 10.5t3.5 19.5zM174 490
q0 8 -9.5 20t-19.5 12q0 -6 0.5 -13t3 -13.5t6.5 -11t12 -4.5q1 1 3 2q3 3 3 5q1 0 1 3zM193 353q2 -1 7 -6.5t7 -6.5q5 2 6 5.5t1 7.5q0 5 -2.5 9.5t-8.5 4.5h-3q-4 -3 -7 -7v-7zM343 40q62 0 98 23.5t66 76.5q1 4 6 7q6 -12 22.5 -13t27.5 -1q16 0 30 8.5t14 27.5
q0 6 -1 18.5t-9 12.5q-9 0 -21.5 -2.5t-25 -7.5t-23 -12.5t-14.5 -17.5q-1 46 -9 82.5t-27 61t-51 37.5t-80 13h-18.5t-14.5 -1l-10 -6v-247q-1 0 -10.5 -7.5t-9.5 -13.5q10 0 14.5 -4.5t7 -10.5t5 -13t10.5 -11h23zM640 327q-5 0 -5 6.5t5 6.5t5 -6.5t-5 -6.5zM234 151
q-15 0 -28.5 -5t-13.5 -23q0 -9 5.5 -16.5t15.5 -7.5q9 0 13 5.5t6 14t2 17.5v15zM163 102q-8 0 -13 -4t-10 -11q1 -1 3 -1q7 0 13.5 4t6.5 12zM433 -7q-3 -3 -16 -3t-17 3q-2 1 4 2t12.5 1t12 -1t4.5 -2z" />
    <glyph glyph-name="cid36" unicode="C" horiz-adv-x="708" 
d="M667 33q0 -12 -15.5 -21.5t-39 -16t-52 -11t-54 -7t-45 -3.5t-24.5 -1q-93 0 -173 28t-144 99q-3 1 -5 8q-1 3 -2 5l34 40v6q0 3 -13.5 9.5t-30.5 15t-32 18t-18 18.5q-12 38 -16 74t-4 76v50q0 7 7 7q2 0 10 -3.5t10 -3.5l4 1q0 10 -4 15.5t-8.5 9t-8 7t-3.5 10.5
q0 74 39 131t98.5 95.5t130 58t132.5 19.5q6 0 25 -1.5t43.5 -4t51 -7.5t49 -11.5t37 -15.5t14.5 -20v-187h-67q-7 0 -13.5 17t-13 42t-13.5 55t-14 55t-14.5 42t-15.5 17q-11 0 -16.5 -5t-5.5 -23q-73 -5 -123 -35t-80.5 -77.5t-44 -109t-13.5 -128.5q0 -60 12.5 -121.5
t41 -111t76 -80.5t118.5 -31q34 0 53.5 14.5t30.5 36t15.5 46.5t7 46.5t6 36t13.5 14.5h53l14 -13v-174zM367 740q5 0 5 6.5t-5 6.5t-5 -6.5t5 -6.5zM195 640q0 8 -8 13q-9 -5 -9 -13h17zM153 600h-6q5 -6 6 -11t1 -12q0 -14 -7 -20.5t-17 -10l-20 -7t-17 -12.5l7 -7
q15 10 27 16t22.5 12.5t20 16.5t17.5 28zM127 207q0 -2 2.5 -4.5t3.5 -2.5q6 0 15 2t18 6.5t15 10.5t6 14q0 15 -6.5 27.5t-16.5 23t-22 19.5t-22 17q-1 1 -5 1.5t-5 0.5q-7 0 -11 -5.5t-6 -13.5t-3 -16t-3 -14q1 0 7.5 -1t13.5 -3.5t13 -6t6 -9.5v-46zM80 167q-8 5 -8 13h8
v-13zM393 -13q4 -6 7 -7h7q4 1 6 7h-20z" />
    <glyph glyph-name="cid37" unicode="D" horiz-adv-x="799" 
d="M753 360q-23 26 -44 43.5t-56 17.5l-26 -1q-6 -2 -7 -5.5t-1 -8.5q0 -3 6 -13.5t14.5 -24.5t19 -29.5t19.5 -28.5t15 -21.5t7 -8.5q5 0 9.5 2t4.5 8q0 7 -4 12t-4 12q0 8 5.5 14t13 10.5t16 6.5t14.5 2q0 -68 -26.5 -132t-72.5 -113.5t-108.5 -79t-134.5 -29.5h-383
q0 3 0.5 8.5t1 12t1 12t0.5 7.5q1 2 3.5 4.5t3.5 2.5h16.5t26 2t24.5 7.5t13 17.5q3 94 5 177.5t2 173.5v49q0 23 -1 59t-2 70t-2.5 59l-1.5 25l-7 13q-20 2 -35 3t-25.5 5.5t-16 15t-5.5 32.5q10 0 14.5 -8t14.5 -8q8 0 14 3t13 11h286q5 -16 11 -28.5t23 -18.5h-80
q-18 0 -23 -5.5t-5 -16.5q0 -7 1 -13t7 -12v-154q-20 0 -32.5 13.5t-21.5 27.5q-2 -1 -7 -6t-6 -7q-1 -6 4 -12t12 -11.5t14 -10t10 -6.5q7 -7 16 -13q5 -4 11 -7v-407l13 -13h65q0 -10 8.5 -16.5t20 -10.5t23.5 -5.5t20 -1.5q4 0 9.5 0.5t6.5 6.5q-11 15 -23 22t-30 11
q46 25 75 60.5t45 77.5t21.5 89.5t5.5 96.5t-5.5 96.5t-22 89t-47 75t-79.5 55.5q3 1 8.5 3.5t12 6t12 6.5t7.5 4q1 1 4 3.5t3 3.5v3q0 7 -5.5 10.5t-13 5t-15.5 3t-13 5.5h17q4 0 21 -1.5t35 -5t32.5 -8.5t14.5 -12q0 -1 -3 -6.5t-3 -6.5q-1 -1 -1 -4q0 -7 11.5 -17
t15.5 -19q2 -4 7 -17t7 -17q8 3 17.5 10t9.5 17q0 11 -7.5 20t-7.5 21q9 0 25 -8t31.5 -19.5t26.5 -24t11 -22.5q0 -7 -7 -10.5t-16 -7t-16 -8.5t-7 -14q0 -1 2.5 -3.5l3.5 -3.5h4q6 0 11 4t10.5 9.5t11.5 9.5t14 4q13 0 21.5 -14.5t8.5 -25.5q0 -15 -10.5 -28t-10.5 -26
q0 -8 7 -11t15.5 -3.5t16 0.5t8.5 1q10 -14 14.5 -31.5t6 -36.5t1 -37.5t-0.5 -34.5h-8zM600 527h-13v-7h13v7zM160 327q3 3 5 8q1 3 2 5q0 7 -1.5 18t-4.5 22.5t-8.5 20.5t-12.5 12v-120zM587 393v-29q9 0 12 11.5t3 17.5h-15zM140 140q3 1 3 3.5t-3 3.5q-3 0 -3 -4t3 -3z
M160 60q5 0 5 6.5t-5 6.5t-5 -6.5t5 -6.5z" />
    <glyph glyph-name="cid38" unicode="E" horiz-adv-x="674" 
d="M633 73q-5 -2 -6 -6q-1 -1 -1 -4q0 -2 1 -3q0 -1 3 -6.5t3 -6.5q1 -1 1 -4t-1 -3q-2 -3 -9.5 -13.5t-10.5 -13.5q4 -5 12.5 -7.5t8.5 -8.5q0 -3 -1 -4t-6 -3.5t-7 -2.5h-567q-8 0 -6 7.5t2 9.5q-4 0 -6.5 1.5t-4 1.5t-2.5 -2.5t-3 -11.5l-3.5 7t-2.5 7q-1 0 -1 3t1 3
q0 3 2.5 10.5t3.5 9.5q7 1 21.5 2t29 4t25.5 9.5t11 18.5v606q0 12 -12.5 17.5t-27.5 7.5t-27.5 2h-12.5q-1 0 -3.5 2.5t-3.5 4.5q0 2 -0.5 7.5t-1 12t-1 12t-0.5 8.5h583v-207h-60l-13 13q-8 24 -14 45q-5 18 -10.5 37t-8.5 32q-3 5 -5 16l-2 10q0 3 5.5 8t7.5 6
q-1 1 -4.5 5t-8 8.5t-8.5 8t-5 4.5q-2 2 -7 4.5t-7 2.5h-86v-43h-74v-290h107q13 0 15 16.5t3 37t7.5 37t29.5 16.5h7.5t11 -1t9.5 -4t4 -9v-240q0 -5 -4 -7.5t-10 -4t-12.5 -2t-10.5 -0.5q-15 0 -23 10t-11 24.5t-3 30v26.5v10l27 -7h7q9 0 15 3.5t6 13.5q0 7 -4.5 13.5
t-10 13.5t-11.5 14t-9 15q-1 1 -3 1q-3 0 -3 -1q-1 0 -4 -2.5t-3 -3.5q-1 -2 -3 -8t-4.5 -13t-4 -12.5t-1.5 -6.5q-4 -6 -5 -10t-2 -7h-110v-31l-4 1h-6q-3 0 -9.5 1t-14 2t-14 2t-9.5 2q-6 -2 -6.5 -7.5t-0.5 -10.5q0 -7 4 -15t13 -8q3 0 4 1q1 0 6 3t10.5 6.5t10.5 6.5
t6 4l8 1q0 -40 -1 -81t-7 -80q-2 8 -8 18.5t-14.5 19.5t-18.5 15.5t-19 6.5q-8 0 -22 -12t-28 -27.5t-24 -30t-10 -20.5q14 0 26 2.5t24 6t25.5 6t29.5 2.5l6 -1q1 0 5 -3t8.5 -6t8 -6.5l4.5 -4.5l14 7v-13q0 -6 1 -15t2 -17.5t2 -14.5t1 -7l7 -6h193q1 0 3.5 2.5l3.5 3.5
t3.5 9t3.5 11q2 7 6.5 24t9.5 36.5t10 36.5t7 23l13 14h60v-134zM607 700q5 0 5 6.5t-5 6.5t-5 -6.5t5 -6.5zM420 700l7 7l6 -7h-13zM289 578q0 13 -8.5 14.5t-18.5 1.5q-12 0 -20 -4.5t-16 -10t-17 -9.5t-22 -3q1 -7 6.5 -7.5t10.5 -0.5q12 0 20.5 3t17.5 6.5t20 6.5t27 3z
M567 67h-29q0 -14 8.5 -20.5t20.5 -13.5v34z" />
    <glyph glyph-name="cid39" unicode="F" horiz-adv-x="657" 
d="M620 733q-10 6 -19.5 7t-20.5 1q-16 0 -27 -6.5t-21.5 -13t-22.5 -10t-29 1.5l-7 -13h-126q-5 13 -9 15.5t-15 2.5q0 -8 -2.5 -13.5t-5.5 -10t-5.5 -9.5t-2.5 -12v-266h113q1 0 3.5 2.5l3.5 3.5q3 8 5.5 20.5t4 25.5t2.5 24.5t1 16.5q6 9 15 11.5t18 2.5h5.5t9 -0.5
t8.5 -2t4 -4.5v-195q-16 0 -30 11.5t-10 29.5q-12 -1 -16 -10t-4 -19q0 -18 3.5 -35.5t3.5 -35.5v-6l-7 6l-14 94h-119v-287q0 -1 2.5 -3.5l3.5 -3.5q6 -2 19 -4t26.5 -4t25 -3.5t16.5 -1.5q11 -4 12.5 -10.5t1.5 -15.5v-11.5t-7 -9.5h-280q7 11 7 21q0 7 -4.5 13.5
t-12.5 6.5q-3 0 -4 -1q-1 0 -6.5 -3t-6.5 -3q-3 -1 -11.5 -0.5t-18.5 1t-18.5 1t-11.5 0.5v-18q11 0 19 1t15 0t13 -5t13 -14h-67q-4 0 -5.5 8.5t-1.5 11.5q0 18 14 27q32 1 49 5t25 14.5t9.5 29.5t3.5 51q12 -1 23 -7t20.5 -12.5t17.5 -11.5t15 -5q0 16 -7.5 24t-16 15.5
t-16 18t-7.5 30.5q-9 0 -15 -3t-14 -3v101q6 -6 11 -6.5t12 -0.5h10q6 13 10 25t4 26q0 13 -11 18t-23 5q-4 0 -7 -1l14 -20q-1 -2 -2 -3q-3 -3 -5 -3q-2 -1 -8.5 -4t-8.5 -3v333q0 8 -5 17.5t-12.5 18t-16.5 14t-16 5.5q-5 0 -14 -1.5t-6 -13.5l-13 7l7 7q-8 2 -14.5 6.5
t-6.5 12.5q0 4 1.5 12.5t5.5 8.5h587v-14zM620 547q0 -8 -13.5 -11t-19.5 -3q-9 0 -23 1.5t-17 12.5l-40 140v2q11 0 18.5 5t14.5 11t14.5 11t19.5 5q13 0 23 -8t23 -8v-158zM281 557q0 19 -17.5 42t-42 43.5t-50.5 34t-43 13.5q0 -10 16.5 -22.5t36.5 -27t36.5 -30.5
t16.5 -33q0 -12 -4 -23t-4 -23q4 0 13.5 1t18.5 3.5t16 7.5t7 14zM593 633q0 -4 1 -7.5t6 -5.5q1 2 1 7q0 4 -1 7.5t-7 5.5v-7zM487 480q4 1 6 7q1 0 1 3q0 9 -8.5 10.5t-14.5 1.5q0 -6 2 -14t10 -8h4zM493 407q-7 16 -29 16q0 -21 16 -30zM240 238q-21 0 -37.5 -9
t-16.5 -33q4 0 13 2t18 5t16 7.5t7 9.5v18zM294 157q0 11 -5 14.5t-17 3.5q0 -9 2.5 -23t12.5 -19q5 6 6 11.5t1 12.5z" />
    <glyph glyph-name="cid40" unicode="G" horiz-adv-x="766" 
d="M756 367q0 -27 -10.5 -37t-22.5 -13t-22.5 -4.5t-10.5 -12.5v-260q0 -6 -12.5 -13t-29 -14t-32.5 -12.5t-23 -7.5q-3 -1 -7 -1.5t-9 -1.5t-10 -3q-5 1 -8 6.5t-5.5 11.5t-6 10.5t-10.5 4.5h-4q-4 0 -14.5 -0.5t-22.5 -1.5t-22 -2.5t-14 -2.5t-7 -6v-7q7 7 18 7h19h23
q6 -4 7 -7v-3q0 -13 -9 -18t-21 -6.5t-24 -0.5t-18 1q-89 0 -164.5 27.5t-131.5 79t-87.5 125t-31.5 165.5q0 90 31.5 164.5t87.5 127.5t132.5 82t165.5 29q4 0 22 -1.5t42 -5t51 -8.5t49.5 -11.5t37.5 -15t15 -18.5v-180l-14 -13h-53q-16 0 -19 15.5t-4 38t-4 49t-18.5 48
t-48.5 34t-93 8.5q-3 11 -10.5 19.5t-19.5 8.5q-26 0 -48 -25.5t-39.5 -65.5t-31.5 -88.5t-23.5 -94.5t-14.5 -84t-6 -56q-18 17 -24.5 27.5t-11 18.5t-11.5 17t-26 23q-14 10 -21 24t-13 30h-13l-40 -7q11 -14 27.5 -28.5t31.5 -29.5t27 -32t14 -37q0 -6 -0.5 -19t-0.5 -28
t1.5 -29.5t6.5 -23.5q5 -12 14 -20.5l18 -17t15.5 -18.5t6.5 -24q0 -12 -7.5 -20.5t-16.5 -15t-16.5 -13t-7.5 -14.5t8.5 -14.5t20 -11.5t23.5 -8t19 -3h3q5 3 6 7q1 0 1 3q0 8 -4 13.5t-4 13.5t3 12.5t12 4.5q7 0 12.5 -4.5t10 -10.5t10 -11.5t13.5 -7.5q10 -2 15 -0.5
t8.5 1.5t8 -4t14.5 -17q-14 -3 -20.5 -7.5t-9 -10.5t-2 -14.5t0.5 -18.5q22 0 30.5 12t8.5 34q14 0 27.5 -3.5t27.5 -7.5t28 -7.5t29 -3.5h16t11 1l13 13v247q0 21 -16.5 25t-37 5t-37 5t-16.5 25v11t7 9h200q-31 -18 -54.5 -49.5t-23.5 -67.5q17 0 29.5 -4.5t27.5 -4.5
q0 12 -6.5 21t-6.5 22q0 16 12.5 25.5t29.5 16t34 14t25 20.5l-7 7h83zM587 645q8 0 17 1t16 7q-1 7 -8.5 7.5t-11.5 0.5l-13 -1v-15zM280 647q1 3 -3 3t-4 -3q1 -3 3.5 -3t3.5 3zM108 589q-12 0 -20 -13t-8 -23q0 -15 18 -15q0 16 5 26.5t5 24.5zM635 540q0 5 -3 9.5
t-9 4.5q-2 0 -3 -1v-13h15zM133 480q15 0 15 17q-7 0 -14.5 -3.5t-6.5 -13.5h6zM240 213q-5 19 -19 34t-28 26v4q0 3 4.5 7t10.5 8.5t11.5 10t7.5 10.5q1 -5 3 -16t3.5 -23.5t3.5 -24t3 -16.5v-20zM247 193q-3 -1 -3 7t3 7q3 -2 3 -7t-3 -7zM627 120v67q-1 1 -2 3q-3 3 -5 3
q-1 1 -3 1q-9 0 -16 -17t-12 -38.5t-7.5 -42.5t-2.5 -29l1 -27q3 -7 12.5 -9.5t14.5 -3.5q-4 13 -1 23.5t10 18.5t17 14t20 10zM260 160q-5 6 -6 10t-1 10v7q5 -6 6 -10t1 -10v-7zM680 187h-13v-7h13v7zM267 147q-3 -1 -3 3t3 3q3 0 3 -3t-3 -3zM273 133q-5 0 -5 7t5 7t5 -7
t-5 -7zM280 120q-5 0 -5 6.5t5 6.5t5 -6.5t-5 -6.5z" />
    <glyph glyph-name="cid41" unicode="H" horiz-adv-x="870" 
d="M820 37q11 0 12.5 -12t1.5 -18v-10.5t-7 -9.5h-347q-7 0 -7 9.5v10.5q0 6 1.5 18t12.5 12h53l13 16v287h-240q0 -14 -1 -47.5t-2 -72t-2 -72.5t-1 -48v-15q0 -26 13.5 -33.5t30 -10.5t30 -7.5t13.5 -23.5q0 -3 -1 -3q-1 -3 -1.5 -6.5t-1.5 -6.5q-1 -4 -3 -7h-347
q-4 0 -5.5 3.5t-2 7.5t0 8l0.5 4q0 3 -0.5 12.5t7.5 10.5h10.5t21.5 1.5t24 4.5t17 8q3 2 6.5 7t3.5 6v97h30l12 30t8 16.5t10 12.5l17 17v3q0 17 -13 26t-27 9q0 -16 0.5 -26t-1.5 -17.5t-9 -13.5t-23 -14v233q1 -1 6 -3.5t7 -2.5q9 0 7 9t-2 11h-22v226l-10 20l47 20
q0 1 1 4t1 5q0 6 -3 13.5t-12 7.5h-107l347 4q4 0 5.5 -8.5t1.5 -11.5q0 -21 -13.5 -25t-30 -5.5t-30 -7t-13.5 -29.5v-253h246v266q0 14 -12.5 16.5t-28 4.5t-28 7.5t-12.5 25.5l1 13l14 7h220q1 0 3.5 -2.5t2.5 -4.5q0 -1 -3 -6.5t-3 -6.5q-1 -2 0 -6t1 -6q15 0 28.5 5
t26 11.5t24.5 11.5t23 5q24 0 24 -24q0 -20 -13.5 -25t-30 -6t-30 -3.5t-13.5 -16.5v-620l13 -16h60zM381 723q0 19 -17 19q0 -3 1 -14.5t2 -14.5q0 -1 2.5 -3.5t3.5 -2.5q7 1 7.5 6.5t0.5 9.5zM47 700q-9 0 -11.5 4.5t-2.5 12.5v10q7 -5 12.5 -12t7.5 -15h-6zM193 627v-15
q4 0 10 0.5t12 2t10.5 4.5t4.5 8h-37zM721 520q0 4 -1 7q-21 -3 -39 10t-28 30q-6 -7 -6.5 -13.5t-0.5 -14.5q0 -9 6 -24t18 -15h14.5t16.5 1.5t14 5.5t6 13zM273 447q2 -2 7 -4.5t7 -2.5q1 0 3.5 2.5t2.5 4.5q1 3 2 14.5t1 14.5q-10 0 -14.5 -7.5t-8.5 -15.5v-6zM680 293
h-7l7 -6v6zM293 268q-8 0 -13 -8h13v8zM247 233h-16q0 -8 2 -18t14 -10v28zM713 0q1 0 -4.5 10.5t-8.5 16.5q-8 14 -10 29t-3 30t-3 30.5t-11 30.5h-13q-6 0 -13 -1t-7 -10q0 -6 5.5 -12.5t11.5 -13.5t11.5 -15.5t5.5 -18.5q0 -13 -7 -24t-17 -20.5t-22 -17.5l-21 -14l6 -7
h94zM260 121q-3 0 -9.5 0.5t-13.5 0t-13.5 -2.5t-10.5 -6q7 -12 13 -16.5t17 -4.5q14 0 28 8t22 20zM347 0q-14 20 -40 27t-49 7q0 -9 7 -17t17 -13.5t21 -8.5t19 -3h13t12 8zM747 0q-2 5 -5.5 11t-8.5 9q-1 -2 -3.5 -10t-2.5 -10q-1 -1 -1 -4v-4q8 0 21 8z" />
    <glyph glyph-name="cid42" unicode="I" horiz-adv-x="436" 
d="M380 43q11 0 12.5 -11.5t1.5 -17.5v-11.5t-7 -9.5h-354q-4 0 -5.5 8.5t-1.5 11.5q0 18 14 27q3 0 11.5 1t18.5 2t18.5 2t11.5 2q2 0 10 3.5t10 2.5q4 -1 7.5 -7.5t6.5 -15.5t7.5 -17.5t11.5 -12.5h7q17 10 40.5 15t44.5 12.5t35.5 20.5t14.5 39q0 3 -0.5 13t-1.5 13
q-1 7 -6 7h-9q-19 0 -35 -6.5t-30.5 -14t-28 -14t-26.5 -6.5q-9 0 -15.5 1.5t-15.5 6.5q-1 13 -2 41t-1.5 63.5t-1.5 75t-1.5 75t-0.5 63.5v42v80q2 2 9.5 10t10.5 10h3q10 0 16.5 -3.5t11.5 -8.5t10 -11t12 -11h14q4 1 12 3.5t8 3.5v69q-14 0 -25 3.5t-21.5 8t-20 8.5
t-20.5 4q-5 0 -6 -5t-2 -12t-3.5 -13.5t-11.5 -9.5v107l-17 13q-20 1 -34 2.5t-23.5 6.5t-14 15t-4.5 30h248q0 -26 3 -48.5t3 -50.5q5 0 13 11t16 23v-622l13 -17h60zM387 747q6 0 6.5 -7t0.5 -10q0 -14 -9.5 -20.5t-23 -8.5t-27 -2.5t-20.5 -3.5q6 10 6 15q0 8 -8 20
t-12 17h87zM380 744q-13 0 -17.5 -10t-4.5 -21h22v31zM140 720q3 2 9 8t6 12h-15v-20zM307 687q0 4 7 8l-7 -13v5zM220 401q-6 0 -10 -5.5t-6.5 -12.5t-3.5 -14.5t-1 -11.5q12 0 23.5 10.5t11.5 22.5q0 6 -4.5 8.5t-9.5 2.5zM170 320q7 0 9 8.5t2 13.5q-6 0 -13.5 -2
t-7.5 -10v-3q2 -5 7 -7h3zM287 333q-9 -5 -9 -13h9v13zM277 220q8 0 12.5 2.5t4.5 11.5q0 7 -11.5 16t-27 17.5t-30.5 14.5t-22 6l-16 -1q-8 -15 1 -27.5t25.5 -21.5t35 -13.5t28.5 -4.5zM260 73q2 3 7 8l6 6q10 2 12 -3t2 -10q0 -14 -14 -14q-13 0 -13 10v3zM187 43
q0 -9 -9.5 -13t-17.5 -4q-5 0 -9.5 2.5t-4.5 8.5q0 2 1 3q2 3 7 8t6 5q3 1 13.5 -1.5t13.5 -4.5v-4z" />
    <glyph glyph-name="cid43" unicode="J" horiz-adv-x="442" 
d="M407 747q4 0 5.5 -8.5t1.5 -11.5q0 -15 -9.5 -21.5t-23 -9t-27 -2.5t-21.5 -1q-8 -3 -10.5 -16.5t-2.5 -16.5v-440q0 -44 -6 -92t-20 -95t-36 -89.5t-53.5 -74.5t-73.5 -51t-95 -19q-15 0 -38 4t-45 12.5t-37.5 22.5t-15.5 35q0 18 8 32t20.5 23.5t28 14t31.5 4.5
q21 0 37 -5t29.5 -15t25.5 -23.5t27 -30.5q14 9 20.5 29t9 43t2.5 44.5t1 33.5h20q-2 8 -11 18.5t-9 18.5v287l13 -27h7v50h-23v290q0 2 -4 12l-6 15l-3.5 3.5t-3.5 2.5l-80 14q-7 2 -7 9v11v11t7 9h80q10 -14 30.5 -24t36.5 -10t22.5 9.5t6.5 24.5h191zM93 720l-33 13
l-7 -6q7 -10 18.5 -13t21.5 -3v9zM293 620q-1 4 -6 7h-7v-7h13zM187 607l-3 -4.5t-6.5 -11t-6.5 -13.5t-4 -11l-1 -7q0 -24 12.5 -32.5t28 -13t28 -12t12.5 -29.5q0 -8 -3.5 -15t-7 -13.5t-7 -13.5t-3.5 -16q0 -14 8 -21.5t19.5 -11t24.5 -4t22 -0.5q0 47 -7.5 73.5t-19 42
t-24.5 24t-24.5 18t-19 25.5t-7.5 46h-11zM307 333q-6 -2 -10.5 -9t-9 -15.5t-9.5 -16.5t-11 -12q7 -21 20.5 -36t19.5 -37v126zM227 -37q0 13 -11 22t-23 9q-14 0 -14 -14q0 -12 12 -19.5t23 -7.5q4 0 8.5 2t4.5 8zM0 -79q-15 0 -33 -8q0 -1 2.5 -3.5t3.5 -2.5
q3 -1 13.5 -2t13.5 -1v17zM160 -127q5 0 5 7t-5 7t-5 -7t5 -7z" />
    <glyph glyph-name="cid44" unicode="K" horiz-adv-x="785" 
d="M780 43q11 0 12.5 -13t1.5 -19l0.5 -4t0 -8.5t-2 -8t-5.5 -3.5h-238v22.5t-3 18.5t-10 12.5t-21 4.5q0 6 -3.5 16t-4.5 12l-120 234q-1 0 -1 3q0 9 5.5 18t12 18t12 17.5t5.5 16.5q0 12 -11 19.5t-23 7.5q-6 0 -20 -3t-14 -11q0 -1 3.5 -6.5t3.5 -6.5l7 -33v-7
q-3 -2 -10 -8.5t-14.5 -14t-14 -14.5t-8.5 -10q-3 -3 -8 -10.5t-5 -9.5v-220l3 -3q1 -3 3 -3q12 -6 31 -9.5t29 -4.5q6 -6 7 -11t1 -12q0 -6 -2 -11.5t-9 -5.5q-4 0 -7.5 5.5t-7.5 11.5t-9.5 11.5t-12.5 5.5q-2 -1 -3 -2q-3 -2 -3 -5q-1 0 -1 -3t1 -4q0 -1 3 -9.5t3 -10.5
q1 -2 1 -6h-287l-14 6l-1 14v14t8 12l67 14q5 1 11.5 11t8.5 15q-5 163 6 327q10 7 20.5 13.5t22.5 6.5q22 0 35 -14t20 -34t9 -42t2 -38l-9 1q-1 1 -6.5 4t-6.5 3h-7q0 -3 -1 -11.5t-2 -18.5t-2 -18.5t-1 -11.5v-4q0 -5 5 -7t11.5 -2.5t12.5 -0.5h9q4 0 11.5 2.5t14 6
t11.5 8.5t5 10q0 9 -4 18t-8.5 18.5l-9 19t-5.5 18.5q0 1 3 6.5t4 6.5v7q0 26 -11 45.5t-24.5 37.5t-25 37.5t-13.5 45.5q-12 -6 -16 -14t-8 -15t-11 -12t-25 -5q-2 0 -6 2.5t-4 3.5v207l-16 17h-62q0 3 1 4q0 5 1 6q0 1 3 6.5t3 6.5q0 3 -3.5 5t-7.5 3t-7.5 1h-3.5
q0 2 2 10t7 8h224q4 1 14 1v-1h109q4 0 5.5 -8.5t1.5 -11.5q0 -22 -14.5 -26.5t-32.5 -7t-32.5 -10.5t-14.5 -36v-27q0 -14 0.5 -49t1.5 -74.5t2.5 -74.5t2.5 -49h6q3 2 10.5 10t9.5 10l174 220l20 20q-2 -14 13 -14q11 0 13.5 8.5t6.5 19.5v6q-2 5 -7 7q1 0 1 1v1
q0 21 -12.5 26t-28 7t-28 6.5t-12.5 24.5v11.5t7 9.5h260q7 0 7 -9v-11q0 -8 -2 -15t-12 -7v15h-13v-20q-17 1 -40.5 -9.5t-49.5 -28.5t-52 -41t-46 -47t-33 -46t-13 -38q0 -3 1 -3q0 -2 5.5 -12.5t7.5 -14.5q15 -27 36.5 -66t44.5 -81.5t46 -85.5t42 -78t31 -57.5t13 -24.5
l14 -24h53zM253 613q3 -5 7 -6q10 8 18.5 18.5t8.5 23.5q0 26 -4.5 47.5t-4.5 50.5h-14q-17 -3 -30 -10t-25 -14.5t-25 -12.5t-31 -3v-3q12 0 30.5 -2t35.5 -8t29 -17.5t12 -29.5q0 -8 -3.5 -15.5t-3.5 -15.5v-3zM607 680v-7l6 7h-6zM260 533q-2 6 -5.5 7t-7.5 1q-5 0 -7 -1
v-7h20zM440 400q5 2 6 5.5t1 7.5q0 15 -14 15v-8zM372 373q0 9 8 14q8 -5 8 -14h-16zM595 254q-18 0 -35 -4.5t-36 -4.5q0 -15 2 -23.5t17 -8.5q17 0 34.5 11.5t17.5 29.5zM260 100q4 3 12 11.5t8 15.5q-1 1 -2 3q-3 3 -5 3q0 1 -3 1q-8 0 -9 -9.5t-1 -14.5v-10zM683 44
q0 19 -14.5 28.5t-31.5 9.5q0 -15 1.5 -22.5t6.5 -11t14 -4t24 -0.5zM480 23q0 -2 4.5 -6t10 -8.5t11 -8.5t7.5 -7q1 0 1.5 -4t0.5 -5h-9.5t-16 0.5t-17 2.5t-12.5 6l-1 17q0 12 2.5 18t15.5 6q7 0 10 -1q-6 -2 -7 -6v-4zM780 7l-7 -7h7v7z" />
    <glyph glyph-name="cid45" unicode="L" horiz-adv-x="651" 
d="M40 -13q-10 0 -12 8t-2 14q0 7 1 12.5t6 11.5q36 3 54.5 9.5t26.5 20.5t9.5 37.5t3.5 59.5q17 6 20.5 16.5t3.5 27.5q-5 0 -8 1.5t-5 2t-4.5 -2.5t-6.5 -12v248q10 0 25 -7t15 -21q0 -1 -3.5 -9.5t-3.5 -10.5v-6q11 12 22.5 29t11.5 35q0 16 -16 29t-31 13
q-3 0 -10.5 -2.5t-9.5 -3.5q0 9 -1 31.5t-2 48t-2 48.5t-2 32q-2 26 -17 34t-32 11t-31 7.5t-14 23.5v5t1 8t2 7.5t4 3.5h367q3 0 4 -3.5t2 -7.5t1 -8v-5q0 -8 -2 -13.5t-12 -9.5q-12 -1 -27 -1t-28 -3t-22 -11t-9 -25v-580q0 -2 2.5 -12.5t3.5 -14.5l3.5 -3.5t3.5 -2.5h180
q3 0 5 12.5t4.5 31.5t7 41.5t12 42.5t20 34.5t31.5 17.5h10q3 0 13 -1t10 -6v-233h-573zM233 727q5 0 5 6.5t-5 6.5t-5 -6.5t5 -6.5zM187 669q0 12 -3.5 25t-20.5 13q-9 0 -9.5 -11t-0.5 -16q0 -25 20 -40q12 3 13 11.5t1 17.5zM160 563q0 12 -4 20t-18 8q0 -11 6.5 -21
t15.5 -17v10zM287 407q3 3 3 13t-3 13q-2 1 -2.5 -3t-0.5 -10t0.5 -10.5t2.5 -2.5zM160 338q5 0 11.5 1.5t8.5 7.5q-1 1 -6.5 3.5t-6.5 2.5q-1 1 -4 1q-2 0 -3 -1v-15zM287 313l-7 27q-7 -3 -17 -10t-10 -17q0 -6 7 -13t13 -7q10 0 12 3.5t2 9.5v7zM153 280v-7h7zM207 247
q3 0 3 3t-3 3q-3 1 -3 -3t3 -3zM268 203q0 9 -6 21t-17 12q0 -12 4 -22.5t19 -10.5zM607 7q0 7 -10 13.5t-23.5 10.5t-26 6.5t-17.5 2.5t-14.5 -1t-9.5 -9q0 -2 1 -3q13 -2 23.5 -7.5t20.5 -11.5t20.5 -10.5t22.5 -4.5q13 0 13 14z" />
    <glyph glyph-name="cid46" unicode="M" horiz-adv-x="1014" 
d="M960 753q12 4 13 -4.5t1 -13.5t-1 -17t-10 -12q-2 0 -3 1q5 5 6 9t1 11t-3.5 11.5t-3.5 11.5v3zM937 753q0 -2 0.5 -7.5t1 -12t1 -12t0.5 -8.5q0 -1 2.5 -3.5t4.5 -2.5q-21 -2 -30 -3.5t-24 -10.5l-6 -3q-2 -1 -4 -3v-49q-19 0 -29 -13.5t-10 -29.5q2 0 5 -1t4 -1
q4 1 14 6.5t13 7.5v-375q-5 0 -7 1q-1 1 -9.5 7t-10.5 7l-7 3.5t-6 2.5q-11 0 -19 -11.5t-8 -20.5q0 -16 2.5 -26t20.5 -10q14 0 24 5t13 23l10 -6v-147q4 0 7.5 -5t2.5 -8q-2 -9 -6.5 -13.5t-9.5 -8.5t-8.5 -9.5t-3.5 -15.5h-192q-4 10 -9.5 12t-13.5 2q-7 0 -9.5 -2.5
t-4 -5t-4 -5t-8.5 -2.5q-18 0 -18 17q0 19 14 24.5t31.5 6.5t31.5 2t14 11v176q7 0 21 -1t22 -8q1 2 1 6q0 14 -14.5 23.5t-26.5 10.5v280l-7 13q-5 -3 -8 -9t-5 -11l-153 -413l-7 -14q0 2 -2.5 7t-4.5 7h-3q-8 0 -12.5 -11t-4.5 -16q0 -16 16 -16q0 -3 -3.5 -17.5t-9.5 -31
t-13.5 -29.5t-15.5 -13h-47l-13 14l-8 20t-18.5 47.5t-22 57t-18.5 48.5q-4 11 -6 17.5t-2 16.5q65 0 81 -61h17q13 0 18.5 2t5.5 16q0 18 -19 30.5t-41.5 25t-41.5 28.5t-19 42v3l7 33q-2 1 -7 1l-6 -1q-3 -1 -8.5 -3.5t-12 -5.5t-12 -6t-7.5 -5q-18 63 -39 124t-55 116
l-6 -6v-514l6 -33q11 2 18 8.5t13 14t13.5 13t19.5 5.5q5 0 13.5 -0.5t9.5 -0.5q3 0 8 -3t5 -4v-40h-273q-7 0 -7 9v11q0 20 17 25.5t38 7t38 2.5t17 12v433l10 7q7 -4 11 -12.5t7 -17.5t7 -15.5t11 -6.5q0 21 -0.5 34t-5 23.5t-14 21.5t-26.5 26v134q0 6 -16 6t-35.5 1
t-35.5 8t-16 28v10t7 7h160q-9 -8 -11.5 -14.5t-2.5 -16.5q0 -9 5 -16t15 -7h7l7 34q0 2 1 5.5t2 6.5q1 4 3 8h97l183 -474q3 -8 5 -11.5t10 -3.5h1q1 0 2 1q1 0 2 1l174 460q1 3 6 13l7 14l3.5 3.5t3.5 2.5h230zM727 633q10 0 15 7t5 16q0 24 -17 33t-37 18v-4
q0 -7 4 -15.5t8.5 -17.5t9 -18.5t5.5 -18.5h7zM847 667q0 3 -4 3t-3 -3t3.5 -3t3.5 3zM347 617q0 9 -3 17.5t-15 8.5q0 -10 3.5 -21t14.5 -15v10zM867 400q5 0 5 6.5t-5 6.5t-5 -6.5t5 -6.5zM327 213q-5 0 -5 7t5 7t5 -7t-5 -7zM707 207q5 0 5 6.5t-5 6.5t-5 -6.5t5 -6.5z
M727 143q0 9 -8.5 10.5t-13.5 1.5q0 -1 1 -11.5t7 -10.5q2 0 7 2.5t7 4.5v3zM227 47q-2 -3 -7 -3t-7 3q-1 3 7 3t7 -3zM787 40q-2 5 -5.5 6t-8.5 1h-6q1 -6 5 -6.5t8 -0.5h7zM974 16q0 -4 -0.5 -9t-6.5 -7q2 12 -2 25t-18 15q3 1 10 1q11 0 14 -7.5t3 -17.5zM467 0q0 3 -4 3
t-3 -3t3.5 -3t3.5 3z" />
    <glyph glyph-name="cid47" unicode="N" horiz-adv-x="825" 
d="M787 747q4 0 5.5 -8.5t1.5 -11.5q0 -20 -15 -25t-33.5 -6.5t-33.5 -4.5t-15 -18v-620l-11 -66h-79q-4 0 -9.5 3.5t-10.5 8t-9 9t-5 5.5q-13 19 -41 59t-63.5 90t-75 105t-75 105t-64 89.5t-41.5 58.5q-11 14 -18.5 24.5t-21.5 22.5l-6 -7l-1 -91q0 -22 -1.5 -65.5
t-2.5 -95.5t-0.5 -106.5t4.5 -99.5t12 -73.5t22 -28.5q3 0 8 2.5t5 4.5v40h7q6 -1 15.5 -2.5t19 -2.5t17 -1.5t8.5 -0.5q5 -1 12.5 -3.5t7.5 -3.5v-40h-287v40q0 6 13 8.5t29.5 5t31.5 7t20 13.5q-1 35 6 63t16 48.5t17 33.5t8 18q0 1 -5.5 6t-12.5 11t-13.5 10.5t-9.5 4.5
v311h9q0 21 5 32t11 17.5t11 11t5 13.5q0 3 -1 8t-6 5q-4 0 -9.5 -4t-10.5 -8.5t-9 -9t-5 -5.5q2 23 -3 35.5t-14 18t-20.5 7t-21.5 2t-18 2.5t-9 9q-1 1 2.5 9.5t3.5 10.5q1 2 1.5 9.5t0.5 10.5h238l20 -20q32 -45 72 -101.5t82.5 -116t85.5 -117.5t80 -105q2 -3 10 -10.5
t10 -9.5q8 2 8 12.5t-1 13.5q13 -13 17 -17.5t6 -4.5t4.5 2.5t12.5 2.5v24l-43 20v340q0 18 -10 25t-25.5 9.5t-33 1.5t-33 0.5t-25.5 8t-10 22.5q0 3 1 11.5t6 8.5h280zM280 687q-1 4 -7 6q0 1 -3 1q-2 0 -10.5 -11.5t-17.5 -25.5t-16.5 -26.5t-7.5 -14.5q16 0 24.5 7.5
t13.5 18.5t9.5 23t14.5 22zM680 523q-8 0 -11 -8.5t-3 -14.5h14v23zM407 380q5 0 5 6.5t-5 6.5t-5 -6.5t5 -6.5zM520 387h-7v-7h7v7zM380 380h-13v-7h13v7zM480 310q0 23 -8 31t-29 8q0 -38 24 -69q1 3 6.5 13.5t6.5 13.5v3zM574 306q0 13 -14 21q-10 -6 -17 -15t-7 -21
h10.5t12.5 1.5t10.5 4.5t4.5 9zM120 287q3 0 3 3t-3 3q-3 1 -3 -3t3 -3zM500 233q-4 6 -13 12t-14 8v-3q0 -7 9 -12t15 -5h3zM580 143q0 -11 14 -14t23 -3l16 1q-2 4 -6 6q-3 1 -8 4.5t-10 6.5l-10 6t-6 3q0 1 -3 1t-3 -1q-6 -2 -7 -6v-4zM120 100q5 -6 14.5 -17.5
t21.5 -11.5q0 17 -0.5 30t-18.5 13q-6 0 -11.5 -1.5t-5.5 -9.5v-3z" />
    <glyph glyph-name="cid48" unicode="O" horiz-adv-x="795" 
d="M233 733q25 15 50.5 22.5t52 10.5t54 3h55.5q0 -6 5.5 -15.5t13 -18.5t16 -17t13.5 -11q4 2 14 12.5t13 13.5q1 1 -0.5 5t-1.5 5q-6 0 -8.5 -1.5t-4.5 -2t-4.5 2t-7.5 11.5q3 1 10 1q42 0 77 -19t63 -51t48.5 -72.5t34.5 -83t21 -84t7 -74.5q0 -81 -24.5 -153.5
t-71 -126.5t-113.5 -85.5t-152 -31.5q-84 0 -150.5 32t-113 86.5t-71.5 126.5t-25 152q0 19 5 52t15 71t24.5 77.5t33.5 71.5t42 52t51 20q3 0 4.5 -2.5t2.5 -5t2.5 -5t6.5 -2.5q6 0 12 3t8 11q0 1 -3 7t-4 7v6zM487 753q-5 0 -5 7t5 7t5 -7t-5 -7zM435 27q5 0 6.5 -3.5
t2.5 -7t3 -7t8 -3.5q8 0 20.5 1.5t12.5 12.5q0 10 -9 14.5t-19 5.5q34 31 54.5 70t30.5 82.5t13 89t3 88.5q0 51 -3 99.5t-18 97.5q-1 3 -5.5 14t-9 23.5t-8.5 23.5t-4 16v3q2 1 7 6.5t7 6.5q-25 20 -61 37t-69 17q-40 0 -68 -17.5t-47 -46t-30 -64.5t-17 -74t-7.5 -74
t-1.5 -64q0 -43 3 -95t16.5 -101.5t40 -90t74.5 -60.5q-5 -6 -6 -10t-1 -11q0 -13 11 -13q8 0 9.5 11t-0.5 16q3 0 10.5 1t16.5 2t16.5 2t10.5 2h8zM687 600l-60 20q-9 3 -18.5 11.5t-18.5 8.5h-3q1 -4 9 -20t18 -34t19.5 -32.5t13.5 -14.5q7 0 14 5.5t13 13.5t9.5 17
t3.5 15v10zM237 600q7 0 8.5 6t1.5 11q0 17 -21 17q-13 0 -13 -11v-3q2 -3 10 -10.5t10 -9.5h4zM160 520l-33 33q-1 1 -4 1q-2 0 -3 -1q-20 -14 -20 -37v-3q6 -5 15 -6.5t18 -2.5t16.5 -0.5t10.5 0.5v16zM173 400q2 0 13.5 -3.5t13.5 -3.5q12 2 16.5 21t6.5 42q1 26 -1 58
q-17 0 -23.5 -8t-8.5 -19.5t-3 -24.5t-7 -22t-18 -16t-25.5 -13l-27 -12t-22.5 -12q-1 -3 -1 -7q0 -10 4 -18.5t4 -18.5q0 -8 -4 -13.5t-4 -12.5q0 -3 1 -4q19 -5 30.5 -20.5t20.5 -31.5t19 -28.5t27 -12.5q6 0 9 4t5 10t2.5 12t0.5 9q0 12 -11.5 22t-26 20t-26 22t-11.5 29
q0 20 10.5 36t33.5 16h3zM629 495q-17 0 -30 -14t-13 -31q0 -3 1 -3q2 -6 6 -7q3 6 9 13.5t12 14.5t10.5 14t4.5 13zM647 213q0 13 -9.5 16.5t-21 5t-21 4.5t-9.5 14t4.5 19.5t4.5 20.5h-8q-6 0 -9 -7.5t-4.5 -16.5t-1.5 -17.5v-11.5q0 -19 2 -33t13 -34l13 -1
q14 0 30.5 8.5t16.5 26.5v6zM267 87q5 0 5 6.5t-5 6.5t-5 -6.5t5 -6.5zM608 69q-15 0 -19 -6t-4 -20q23 0 23 26zM267 5q0 12 -4 23t-19 11q0 -11 5 -22.5t18 -11.5z" />
    <glyph glyph-name="cid49" unicode="P" horiz-adv-x="690" 
d="M433 747q48 0 90 -17.5t72.5 -47.5t48 -71t17.5 -88q0 -5 0.5 -20.5t-1.5 -32.5t-8 -30.5t-19 -13.5l-6 1q-2 0 -6.5 4t-10.5 8.5t-11 8.5t-6 5q0 1 -0.5 -0.5t-1.5 -1.5q0 -14 0.5 -22t4 -12.5t12.5 -6t27 -1.5q0 -14 -16 -30.5t-37.5 -31t-43.5 -24.5t-35 -10
q-2 0 -8 10t-12 23l-16 34q-5 -2 -7.5 -6.5t-4 -10t-2 -10.5t-0.5 -6v-7l3.5 -7t3.5 -6q-21 5 -29 -8t-18 -29h-100l-6 -10q-1 -1 -2 -10t-2 -20.5t-2 -23.5t-1 -19q0 -16 1 -40.5t2 -48t2 -40.5t2 -18l6 -7l87 -13l13 -13l-33 -1q-22 0 -36.5 2.5t-35.5 2.5q0 -9 5 -19
t7 -19h-287q-2 4 -3 8q-1 3 -2 6.5t-1 5.5q-1 1 -1 4q0 6 4.5 12.5t9.5 10.5h21.5t26.5 2.5t22.5 9.5t9.5 21v580q0 28 -14.5 35t-32.5 8.5t-32.5 6t-14.5 27.5q0 3 0.5 10t6.5 7h400zM120 720q5 0 5 6.5t-5 6.5t-5 -6.5t5 -6.5zM197 729q-18 0 -29 -5.5t-28 -10.5
q6 -8 14.5 -14t19.5 -6q14 0 18.5 12.5t4.5 23.5zM460 727v-9q8 0 13 9h-13zM507 713q5 0 5 7t-5 7t-5 -7t5 -7zM260 365q2 0 10 0.5t10 1.5q2 0 10 3t10 3q1 0 3.5 -2.5l3.5 -3.5q1 -2 3.5 -10t2.5 -10q4 -1 15.5 -1h14.5q39 0 67.5 14.5t47 39t27.5 56.5t9 68
q0 21 -7 42.5t-14.5 43t-12.5 42.5t0 41q-6 0 -9 -3.5t-5 -7t-4 -6.5t-5 -3q-22 0 -44 10.5t-46 10.5l-27 -1q-8 -3 -10.5 -16.5t-2.5 -16.5v-233l-47 -47v-15zM473 647q1 -3 6 -8t8 -6q2 0 12.5 3t10.5 11h-37zM507 567q3 1 3 6t-3 7t-3 -6.5t3 -6.5zM159 225q15 0 28 15
t13 30q0 10 -3.5 18.5t-3.5 18.5q0 15 7.5 28t7.5 28q-21 0 -28 -10t-11 -24t-10.5 -29.5t-25.5 -26.5q2 0 7.5 -0.5t11.5 -2.5t10.5 -5t4.5 -8v-4q-1 -1 -4 -9.5t-3 -10.5zM253 127q2 -3 10 -10.5t10 -9.5q1 1 1 3q0 3 -1 3q-2 3 -9.5 10.5t-10.5 9.5v-6zM153 47
q-1 1 -6 3.5t-7 2.5q-1 1 -4 1q-2 0 -3 -1q-6 -5 -14 -12t-8 -17q13 0 24 6.5t18 16.5zM300 47h-7v-7h7v7z" />
    <glyph glyph-name="cid50" unicode="Q" horiz-adv-x="795" 
d="M477 760q45 0 83 -17.5t68.5 -47t54 -68t39.5 -80t24 -84t8 -79.5q0 -39 -4.5 -79t-15.5 -78t-29 -74t-45 -66q-12 -14 -42 -33.5t-60.5 -38.5t-54 -35t-23.5 -23q1 -55 34.5 -89.5t88.5 -34.5q22 0 41 3.5t40 3.5q11 0 17 -8t6 -19q0 -17 -20 -27t-46 -14.5t-50.5 -5.5
t-34.5 -1q0 13 -4.5 34t-18.5 28v-14q0 -13 1 -22t6 -24l-23 -1q-53 0 -86.5 13.5t-54 34.5t-31.5 46.5t-18 49.5t-14 43t-20 27q-11 7 -25 12l-28 10t-26.5 12t-20.5 19l40 47q1 1 1.5 5.5t0.5 6.5q0 12 -7 23.5t-21 11.5q-16 0 -22.5 -10.5t-8 -25t0.5 -29t3 -22.5
q-21 11 -37.5 29t-29.5 38q1 1 3.5 6l3.5 7v3q0 21 -6 29.5t-14.5 12t-17.5 7t-15 15.5q-21 44 -27.5 89.5t-6.5 93.5q0 42 4.5 76.5t15.5 73.5q11 2 18.5 4.5t14 5t14 4.5t18.5 2q0 19 -9.5 21t-35.5 3v3q0 13 8.5 28.5t20.5 30t24.5 26.5t20.5 19q2 -6 5 -11.5t8 -8.5
q5 1 6 5t1 8q0 6 -1 10t-6 10q27 31 61 49t72 27.5t77.5 12t77.5 2.5q0 -12 -3 -16t-3 -17q2 0 9 1t9 1q1 0 6.5 -3.5t6.5 -3.5q3 1 11 6t9 8l-26 13h10zM667 340q-2 3 -10 10.5t-10 9.5h-3q-7 0 -18.5 -4t-23 -10t-21.5 -13t-14 -13q-2 51 -8 102.5t-6 102.5q0 12 4.5 16
t4.5 15q-10 0 -18.5 12t-17.5 30.5t-20 39.5t-26.5 39.5t-36.5 30.5t-50 12q-40 0 -67.5 -18.5t-46 -48t-29 -67t-16 -76t-7 -74.5t-1.5 -63q0 -26 1.5 -62t6.5 -74.5t15.5 -76t29.5 -67.5t46.5 -48.5t67.5 -18.5q43 0 77 28t50 66q5 -6 9.5 -3.5t6.5 7.5q3 6 4 16l-13 -7
q10 39 18.5 76.5t14.5 77.5q0 -3 2.5 -16.5t10.5 -17.5h24h13.5t16.5 1.5t14 6t6 12.5q0 9 -2.5 15.5t-5.5 12t-5.5 12t-2.5 16.5q1 0 7 -1.5t12.5 -1.5t11.5 2t5 9v3zM587 607q-9 -5 -9 -14h9v14zM208 406q0 12 -4 23t-4 24q0 11 3.5 20.5t3.5 20.5q0 5 -5.5 8.5t-12 6
t-13 3.5t-9.5 1q-1 0 -4 -2.5t-3 -3.5q-1 -5 -2 -12t-2 -14.5t-2 -13.5t-1 -7q2 -7 7 -16t12.5 -17.5t16.5 -14.5t19 -6zM663 507q-8 0 -24 -2.5t-32 -8t-28.5 -14.5t-12.5 -22q0 -12 14 -19.5t23 -7.5q4 0 14.5 9.5t22.5 22.5t21.5 25t11.5 17h-10zM193 300h-6v-7h6v7z
M613 273l-6 7l6 7l7 -7zM620 207q2 -3 8 -10.5t12.5 -16.5t12 -16.5t7.5 -10.5q7 -8 9.5 -11t10.5 -3q10 0 15 9.5t5 18.5t-8.5 16.5t-20 12.5t-24 8t-20.5 3h-7zM220 180v-7l7 7h-7zM587 60q0 4 -1 8t-6 5q-9 -4 -11.5 -16t-2.5 -21q11 0 16 7t5 17zM513 53l-13 14
q-32 -24 -67 -40.5t-75 -16.5q0 -7 12.5 -15.5t19.5 -8.5q13 0 23 5.5t19 12t18 12t21 5.5q13 0 21 -8.5t21 -8.5v49zM353 -60q5 0 5 6.5t-5 6.5t-5 -6.5t5 -6.5z" />
    <glyph glyph-name="cid51" unicode="R" horiz-adv-x="770" 
d="M473 653q26 -13 37 -39.5t10 -53.5q6 -3 18.5 -12.5t24.5 -20.5t21.5 -22t9.5 -18q0 -12 -7.5 -13t-17.5 -1q-18 0 -29.5 12t-26.5 22q-1 0 -3.5 -2.5t-2.5 -4.5q0 -7 4.5 -12t11 -9.5t13.5 -9t11 -9.5q-1 -2 -1.5 -10t-0.5 -16.5t0.5 -16.5t1.5 -10q0 -1 3 -7t3 -7
q0 -4 -3 -5.5t-7 -3t-7 -3.5t-3 -7q0 -2 14 -16.5t31.5 -33.5t33.5 -39t21 -32q11 -28 14.5 -54.5t5.5 -50.5t5.5 -44t14 -35t31 -24.5t56.5 -11.5q8 -1 7.5 -10.5t-0.5 -12.5q0 -24 -16.5 -27.5t-37.5 -3.5l-26 1q-5 9 -6.5 7t-7.5 -2v-14h-42t-43.5 3.5t-41 12.5t-33.5 26
q12 -2 23 -1t11 15q0 11 -8.5 15t-20 8t-22.5 13t-16 30q-8 35 -13.5 78t-18.5 80.5t-38.5 63t-73.5 25.5h-6t-11 -0.5t-11 -2t-5 -4.5v-220q-1 2 -7.5 7t-8.5 7h-7q-4 -3 -7 -7v-3q0 -6 5 -15t12 -9h3l14 7q-1 -5 -1 -20t1 -20q1 -4 6 -10.5t7 -6.5h67q2 -2 3 -4l3 -6
q2 -3 4.5 -11t2.5 -9q0 -4 -2.5 -12t-4.5 -8h-140q0 1 -18 17t-40.5 35.5t-43 36t-24.5 18.5v275q8 0 12 -6.5t6 -14.5t4 -14.5t7 -6.5q8 0 14.5 7t16.5 7q12 0 25 -7.5t25.5 -18.5t22 -24t13.5 -24l7 14v93q0 8 -8 12.5t-18.5 6t-21.5 1.5h-16q-23 0 -43 -4.5t-46 -4.5v229
l20 20l13 -13v-7q0 -1 -2.5 -5t-4.5 -8.5t-4 -8.5t-2 -5l-1 -7q0 -7 5.5 -10t11.5 -3h4q5 3 6 7q-9 25 1.5 49t32.5 38q1 2 1 6q0 6 -3 10.5t-12 3.5q-2 -1 -13 -7t-13 -7q-3 0 -8.5 -1t-12 -2t-12 -2t-7.5 -1q-5 7 -8 17.5t-6 20t-8.5 16t-15.5 6.5q-13 0 -15 -10.5
t-2 -20.5q-26 0 -34.5 13t-8.5 38h438q41 0 78.5 -14.5t66 -40t45.5 -60t17 -75.5q0 -5 0.5 -15.5t-0.5 -21.5t-4 -20.5t-10 -12.5q-39 30 -66.5 64.5t-53 68.5t-53.5 65.5t-67 54.5h-77q0 -2 -1.5 -7.5t-2 -11.5t1.5 -10.5t9 -4.5q9 0 17.5 4t18.5 4q24 0 42.5 -7.5
t24.5 -33.5h-3q-26 0 -53 10.5t-55 10.5h-13.5t-8.5 -1l-13 -13v-280l6 -7l24 -1q76 0 119.5 41t43.5 117q0 13 -4 26t-9.5 25.5t-9.5 24.5t-4 24v3zM289 665q-30 0 -30 -28q12 0 21 7.5t9 20.5zM637 647q-6 0 -16.5 -1t-21.5 -4t-20 -8t-12 -14q9 5 15 6t15 1t17 -4.5
t15.5 -9.5t15.5 -9.5t17 -4.5q0 13 -8.5 24.5t-13.5 23.5h-3zM274 588q-7 0 -16.5 -3.5t-18 -9.5t-14.5 -13.5t-6 -15.5q0 -4 4.5 -7.5t10 -6.5t11 -4.5t8.5 -0.5q9 1 13 9t6 17.5t2 19.5v15zM593 527v6h7zM140 473q11 -3 23.5 -5t24.5 -2q0 35 -32 35q-10 0 -13 -6t-3 -15
v-7zM640 453q-2 -3 -8 -9t-12 -6v15h20zM547 287q-2 1 -7 6.5t-7 6.5l-18 -6q-7 -3 -13.5 -6t-8.5 -8q2 -3 10 -10.5t10 -9.5h7q3 2 13.5 9.5t13.5 10.5v7zM138 287q0 -2 0.5 -13.5t8.5 -13.5q2 1 10 6t10 7q1 1 1 4t-1 3q-1 1 -9 3.5t-11 3.5h-9zM281 242q0 4 -0.5 10
t-7.5 8q-9 -7 -18.5 -18t-9.5 -23q11 0 23.5 5t12.5 18zM247 140q0 1 3 6t3 7q1 1 1 4q0 7 -3 16.5t-11 13.5q-11 -7 -16 -12t-5 -15q0 -8 8 -14t17 -6h3zM560 80q2 1 7 6.5t6 6.5t1 3q0 18 -16 18q-6 0 -19 -1t-13 -9q0 -4 4 -8t9 -7.5t9 -5.5t5 -3h7zM58 -7q0 3 2 7
q2 3 9.5 10.5t10.5 9.5q-1 7 -8.5 7h-11.5q-17 0 -20.5 -7.5t0.5 -26.5q-8 2 -7.5 11.5t0.5 12.5t-0.5 12.5t7.5 10.5q3 0 11.5 1t18.5 2t18.5 2t11.5 2q2 0 10 3.5t10 2.5q8 -2 18.5 -8t20 -14t16 -18t6.5 -20h-123z" />
    <glyph glyph-name="cid52" unicode="S" horiz-adv-x="612" 
d="M460 540q-5 0 -8.5 13t-7 32t-9 42t-16 42t-27 32t-42.5 13q-40 0 -77 -17t-53 -57l-1 -37q0 -20 3 -34.5t10.5 -26.5t19 -23.5t28.5 -25.5q19 -8 50.5 -21.5t65 -31t64 -38t47.5 -42.5q-17 1 -22.5 -6.5t-7 -18.5t-2.5 -23t-8 -19q-7 -8 -16.5 -10t-17.5 -3.5t-14 -6.5
t-6 -19q0 -6 0.5 -13.5t9.5 -7.5q12 0 26.5 13.5t29 30.5t27.5 33.5t21 22.5q17 -11 26.5 -27t14 -34.5t5.5 -37.5t1 -37q0 -45 -18.5 -85t-49.5 -70t-72.5 -48.5t-86.5 -20.5h-12.5t-18 0.5t-18 1.5t-11.5 2h45q0 4 1 6q1 7 0 10q-1 9 -5 18t-14 9q-31 0 -44 -10t-13 -37
h-30q4 8 8.5 18t4.5 19t-7.5 10t-13.5 1q-18 0 -19.5 -14t-1.5 -29q-13 0 -39.5 4.5t-53 13.5t-46.5 21.5t-19 29.5l7 153q1 15 15 17.5t25 2.5q24 0 34 -14t14.5 -34.5t7.5 -45t14 -45t33.5 -34.5t66.5 -14q28 0 55 5.5t48 18.5t34 35t13 55q0 48 -26.5 78.5t-66.5 53.5
t-87 44t-87 50t-66.5 71.5t-26.5 108.5q0 3 1 9.5t2 14t2 14t1 9.5q10 -5 15 -2t7 9.5t1.5 14t-0.5 11.5h-10q0 38 31 64t73.5 41.5t86.5 22t70 6.5q21 0 51 -1t60 -7t55.5 -18t39.5 -34l1 -67v-17t-0.5 -22t-0.5 -19v-9q0 -7 -2.5 -20t-3.5 -13h-67zM282 733q0 3 -0.5 14
t-8.5 13q-7 -2 -8 -13t-1 -14h18zM442 719q-12 0 -17 -7.5t-5 -18.5q1 -2 2 -3q1 -3 5 -3q0 -1 3 -1q4 0 6.5 4.5t3.5 10t1.5 11t0.5 7.5zM60 613q-3 0 -3 4t3 3t3 -3.5t-3 -3.5zM167 607h-14v-7h14v7zM113 467q0 1 -2.5 3.5t-3.5 2.5q-16 0 -16 -15q4 0 12 1t10 8zM229 448
q-13 0 -25 -5.5t-12 -19.5q11 0 24 5.5t13 19.5zM448 357v10t-1.5 12t-4 10.5t-8.5 4.5q-15 0 -15 -14q0 -11 9.5 -17t19.5 -6zM362 277q0 5 -1 13t-8 10q-1 0 -3.5 -2.5t-2.5 -4.5q0 -16 15 -16zM87 187q-8 7 -21 7q-6 0 -9.5 -2t-3.5 -12v-87q0 -6 8 -6.5t10 -0.5
q9 0 12.5 8.5t4.5 19t0 21t-1 15.5v37zM433 140q3 2 8 7l6 6q0 3 -2.5 7t-6 8t-7 7.5l-4.5 4.5q-7 -1 -7.5 -8.5t-0.5 -11.5q0 -6 1 -13t10 -7h3zM428 63q-10 0 -19.5 -6t-9.5 -17q0 -4 1 -8t7 -5q9 6 15 15.5t6 20.5z" />
    <glyph glyph-name="cid53" unicode="T" horiz-adv-x="714" 
d="M633 527q-4 0 -7 5.5t-5.5 12.5t-4.5 13.5t-3 8.5l-33 113q-1 3 -3.5 8t-3.5 5h-120v-633l14 -13q7 -1 21.5 -1.5t29 -3t25.5 -9t11 -20.5q0 -3 -1.5 -11.5t-5.5 -8.5h-380q-7 0 -7.5 9t-0.5 11q0 19 14.5 24t33.5 7t36.5 8t23.5 28q2 -8 6.5 -14.5t13.5 -6.5q6 0 10 6
t6.5 13.5t3 15.5t0.5 13q0 10 -4 22t-16 12q-8 0 -12 -4.5t-6.5 -11t-3.5 -13.5t-2 -12v580l-10 13h-113q-6 0 -11.5 -12.5t-9.5 -28.5t-7 -31.5t-5 -20.5q-11 6 -19.5 11.5t-8.5 18.5q0 10 4 17t4 16q0 8 -3.5 19.5t-13.5 11.5q-5 0 -11 -6t-12 -14.5t-11.5 -16t-8.5 -10.5
l66 -67h8q0 -27 -13.5 -43.5t-40.5 -16.5q-20 0 -27 6.5t-7 23.5v23q1 10 2.5 34.5t2.5 52.5t1.5 52.5t0.5 34.5h45q0 -9 3 -15t12 -6t13 6.5t7 14.5h593v-220h-60zM293 740v-47h7q5 13 11.5 24.5t15.5 22.5h-34zM547 740v-13q8 5 8 13h-8zM527 720q-7 0 -15.5 -3t-8.5 -12
q9 0 14 3.5t10 11.5zM440 680h-53q7 -3 24 -9t29 -6v15zM660 593q-20 24 -48 24q0 -15 12.5 -19.5t25.5 -4.5h10zM320 540q0 -7 7 -7q6 0 12.5 5.5t12 12.5t9.5 13.5t6 8.5q-6 17 -18.5 23t-28.5 11v-67zM300 520h-20l13 -7q3 -1 7 -1v8zM440 473q1 3 -3 3t-4 -3
q1 -3 3.5 -3t3.5 3z" />
    <glyph glyph-name="cid54" unicode="U" horiz-adv-x="829" 
d="M800 747q7 0 7 -9v-11q0 -8 -0.5 -14.5t-6.5 -12.5q-9 -1 -22.5 -2t-27 -3.5t-25.5 -7.5t-18 -14q0 -15 -0.5 -45t-1 -68t-1.5 -80t-2 -80t-1.5 -68.5t-0.5 -44.5q-1 -28 -5.5 -61.5t-15 -68t-26 -66.5t-37 -57.5t-50 -40.5t-64.5 -15v8t-1 17t-3.5 16.5t-6.5 7.5
q-6 0 -18.5 -2.5t-26 -7.5t-25 -12.5t-14.5 -17.5q-1 -3 1.5 -11t4.5 -9l-20 -1q-55 0 -109 19t-91 62q6 1 7 5t1 8q0 6 -7 11t-16 11t-18 13.5t-13 17.5q-9 26 -14.5 48.5t-8.5 44.5t-4 45.5t-1 51.5l1 90q3 -8 7.5 -6t10.5 2q0 15 -1 21t-20 6v251q0 11 -12 17.5t-27 10
t-28.5 4.5t-16.5 1q-6 6 -6.5 12.5t-0.5 14.5v11t7 9h354q4 0 5.5 -3.5t2 -8t0 -8t-0.5 -4.5v-12.5t-7 -10.5h-11t-23.5 -1t-26.5 -4t-19 -8q-3 -2 -6.5 -7.5t-3.5 -6.5v-253q-9 7 -15 10.5t-15 3.5q-5 0 -7 -1q-4 -17 -9.5 -31.5t-11 -28.5t-9 -29t-3.5 -34v-3
q50 -17 60 -67l13 7q5 -79 46.5 -126.5t120.5 -47.5q45 0 75 15t49.5 40t29.5 58t15.5 69.5t7 73.5t3.5 71q5 2 6 5.5t1 7.5q0 6 -2.5 9.5t-6 6.5t-6 7t-2.5 11v233q0 8 -17.5 8t-38 1t-38 7.5t-17.5 26.5q0 1 -0.5 4.5t0 8t2 8t5.5 3.5h267zM687 682q-10 0 -14 -9h14v9z
M247 567q-5 2 -14 8t-19.5 12t-21 11t-16.5 5q0 -11 -1 -24t-15 -13t-15 12.5t-1 23.5q-8 0 -13 -11t-5 -18q0 -8 6.5 -13t14.5 -7q10 -1 19.5 -8.5t17.5 -16t14.5 -15.5t11.5 -7q2 0 3 1q4 20 10.5 33t23.5 27zM287 575q-16 0 -27 -8q10 -9 27 -9v17zM293 340q-2 5 -7.5 7
t-11 3.5t-10 4t-4.5 8.5t4.5 8.5t10 3.5t11 1h7.5v-36zM297 198q0 8 -3.5 15t-13.5 7q-7 0 -7 -7q6 -8 11 -11.5t13 -3.5zM367 0q7 11 7 15t-0.5 6.5t2.5 5.5t17 13q-18 14 -27.5 17.5t-26.5 3.5t-29 -1.5t-30 -6.5q-1 -2 -1 -6q0 -10 11 -18.5t25.5 -15t28.5 -10t20 -3.5h3
zM480 -27q-12 -4 -21.5 -5.5t-21.5 -1.5q0 9 6 18.5t17 9.5q9 0 13 -6.5t7 -14.5z" />
    <glyph glyph-name="cid55" unicode="V" horiz-adv-x="744" 
d="M743 747q0 -4 -1 -17t-2 -17q0 -1 -2.5 -3.5t-4.5 -2.5l-23 -1q-13 0 -21.5 4t-18.5 4q-7 0 -13.5 -18t-12.5 -39.5t-12 -41t-12 -22.5q-5 4 -8 9.5t-6.5 10.5t-7.5 8.5t-10 3.5q0 -9 4 -18.5t9 -18t9 -15t4 -9.5t-1 -4l-80 -240h-33q-4 0 -5 -4t-1 -8.5v-9t-1 -5.5
q0 -1 -6 -6.5t-7 -6.5v-7q1 -4 7 -6q3 1 13 6.5t13 6.5h7l-53 -160q-13 -5 -17 -17t-5 -27t-1.5 -30.5t-7 -29t-21.5 -22t-45 -8.5q-19 0 -34.5 4t-22.5 23l-86 240q-3 9 -5.5 16t-2.5 16q2 1 4 1q3 0 4 1q1 0 6.5 6t6.5 7t3 1q3 0 4 -1t6.5 -7t6.5 -6q1 -1 2.5 0.5t2.5 1.5
q0 21 -11.5 39.5t-37.5 18.5q-6 0 -12 -1.5t-4 -12.5l-7 14l-106 293q-8 21 -14 32.5t-14.5 18.5t-22.5 10t-36 6l-7 20v6q1 3 3.5 8.5t3.5 5.5h363q0 -28 -14 -35.5t-31 -9t-31 -4.5t-14 -22v-9l60 -187l1 -12q0 -10 -3 -17.5t-3 -16.5l5 -1l14 7l80 -227q0 -1 5 -1
q3 0 15.5 29.5t29 76t34.5 102t33.5 108t25.5 95t10 61.5q0 13 -15 12.5t-33 0t-33 9.5t-15 41h259zM153 727q3 1 3 6t-3 7t-3 -6.5t3 -6.5zM273 740h-13v-7h13v7zM160 713h-7v-13h7v13zM100 635q30 0 47.5 -13t28 -29t16 -29t11.5 -13q2 0 5.5 1t4.5 1q10 15 19 29t9 32
q0 4 -0.5 11t-7.5 8q-22 -3 -37.5 -0.5t-29.5 6.5t-29 8t-37 4v-16zM273 187q5 0 5 6.5t-5 6.5t-5 -6.5t5 -6.5zM401 150q0 5 -6.5 8.5t-14.5 5.5t-16 2.5t-12 0.5q-8 0 -17.5 -3.5t-9.5 -14.5q21 0 33 -4.5t29 -4.5q5 0 9.5 2t4.5 8z" />
    <glyph glyph-name="cid56" unicode="W" horiz-adv-x="1111" 
d="M853 747q0 1 5.5 3.5t8.5 2.5q3 1 14.5 2t14.5 1q0 -6 -5.5 -11.5t-12.5 -11.5t-14.5 -11t-10.5 -9v34zM907 327q0 -1 -4 -15.5t-10 -37.5t-14 -52t-16 -58.5t-16 -57t-14 -46.5q-1 -4 -4 -13t-6 -18.5t-6 -17.5t-4 -11q0 -1 -2.5 -3.5l-3.5 -3.5q-9 -2 -24 -4.5
t-16 -1.5l-7 6q4 3 7 7v4q0 3 -9.5 8.5t-22 11t-24.5 8.5t-18 1q0 2 -2 8t-4 12.5t-4 12t-3 7.5l-120 400q-1 5 -4.5 16.5t-12.5 11.5q-3 0 -3 -1l-7 -13q-5 -18 -16 -54.5t-24.5 -82.5t-28.5 -96.5t-29 -96.5t-25 -82.5t-17 -54.5q-1 -5 -3.5 -14t-9.5 -13q-3 0 -10.5 -1
t-16 -2t-16 -2t-10.5 -1q-11 -1 -21 1q-8 1 -16 4t-10 8q-13 30 -20.5 61.5t-13.5 63t-11.5 62.5t-14.5 60q-1 2 -10 10t-10 10l-2 8q-1 3 -2.5 6.5t-2.5 5.5q-2 9 -10 36.5t-19 64.5t-24 78.5t-24 78.5t-19 64.5t-10 37.5q-8 24 -22 34t-27.5 16.5t-23.5 16t-10 33.5h343
q7 0 7 -9v-11q0 -14 -8 -20.5t-19.5 -9t-24.5 -3t-22 -1.5q-3 0 -8 -5t-5 -8q0 -1 2.5 -13.5t3.5 -19.5q1 -3 4.5 -15t7 -25.5t6 -25t2.5 -14.5l1 -7q0 -4 -1 -7q-2 3 -12.5 8.5t-13.5 5.5q-10 0 -12.5 -9t-2.5 -15q0 -15 8 -26t20 -24l20 27q7 -3 11.5 -11t6.5 -17.5
t2.5 -20t0.5 -18.5l-1 -13q-15 9 -23 17t-17 23q-7 -15 -21 -29.5t-26 -23.5v-14q21 -2 34 -8.5t22 -15.5t17.5 -20t20.5 -22q0 -1 2.5 -1.5t3.5 -0.5q14 0 14 15q4 -12 7.5 -33.5t8 -42.5t10.5 -36t17 -15q10 0 16.5 14.5t11.5 34t8.5 40t6.5 31.5l74 267l3 12t4.5 17t4 16
t1.5 8v8q0 12 -13 12.5t-28.5 2t-28.5 11t-13 40.5h336v-40q0 -1 -5 -3.5t-8 -3.5q-4 -1 -13.5 -2.5t-20 -2.5t-20 -1.5t-13.5 -0.5l-13 -13q-2 -2 4.5 -26.5t17 -62.5t23.5 -84t26 -90.5t24.5 -83t17.5 -60.5q1 -4 3 -11t4.5 -13.5t4.5 -11l2 -4.5h13l33 100l54 7v-13z
M1100 740q-3 -1 -3 3t3 4q3 -1 3 -3.5t-3 -3.5zM707 723q0 12 -5 15.5t-17 3.5q0 -1 0.5 -4.5t1.5 -4.5q1 -3 6 -13t7 -13q6 1 6.5 6.5t0.5 9.5zM1107 727q-5 0 -5 6.5t5 6.5t5 -6.5t-5 -6.5zM533 722q-15 0 -15 -15h15v15zM860 700q-5 0 -5 6.5t5 6.5t5 -6.5t-5 -6.5z
M1100 713q-1 -4 -7 -6q0 -1 -3 -1q-2 0 -3 1zM1020 693h-7q2 8 13.5 8h13.5l20 -1zM947 687q0 -4 -2.5 -14t-4.5 -13q-3 25 -12 31.5t-35 8.5l20 1q8 0 20 -1t14 -13zM707 540q-1 1 -7.5 10.5t-14.5 20.5t-15.5 20.5t-8.5 9.5q-9 0 -18.5 -4.5t-17.5 -11t-13.5 -15.5
t-5.5 -18q0 -4 9 -10.5t21 -13t23.5 -11t17.5 -4.5h3q7 3 17 9t10 15v3zM900 507q0 3 1 13t3 20.5t5 19t8 8.5t7 -4.5t3 -10t0.5 -11t-0.5 -7.5q0 -15 -3.5 -24t-23.5 -18v14zM890 467q14 0 22.5 -11t8.5 -23q0 -19 -15 -29.5t-33 -10.5v20q1 3 3 10.5t4 16.5t4 16.5t3 10.5
h3zM327 427q-3 -1 -3 3t3 3q3 0 3 -3t-3 -3zM333 400q-3 -1 -3 3t3 4q3 -1 3 -3.5t-3 -3.5zM340 373q-3 0 -3 4t3 3t3 -3.5t-3 -3.5zM300 290q-18 0 -27 -17l20 -20q4 -2 7 -2v39zM767 253q5 4 10 9.5t5 12.5q-10 0 -14.5 -7t-7.5 -15h7zM300 233q5 0 5 7t-5 7t-5 -7t5 -7z
M844 231q-8 0 -16 -3.5t-8 -14.5q0 -1 2.5 -3.5t4.5 -2.5q10 0 13.5 7.5t3.5 16.5zM414 200q0 7 -3 15t-12 8q0 -19 14 -30q1 3 1 7zM813 160q5 0 5 6.5t-5 6.5t-5 -6.5t5 -6.5zM680 133q3 1 3 3.5t-3 3.5t-3 -3t3 -4zM340 113q1 -6 3.5 -18.5t3.5 -14.5q0 -1 2.5 -3.5
l3.5 -3.5q7 2 7 7v9q0 12 -1.5 21.5t-5.5 22.5q-1 1 -3 1q-3 0 -3 -1q-1 0 -3.5 -5.5t-3.5 -7.5v-7zM380 27q-1 4 -7 6q0 1 -3 1t-3 -1q-2 -2 -4.5 -9.5t-2.5 -10.5h7q13 0 13 10v4z" />
    <glyph glyph-name="cid57" unicode="X" horiz-adv-x="739" 
d="M633 67q7 -13 22.5 -16t31.5 -5t28 -7t12 -22v-5t-1 -8t-2 -7.5t-4 -3.5h-360q-5 0 -6 10.5t-1 13.5q0 7 1 12t6 11q3 0 10.5 1t16 2t16 2t10.5 2q9 1 12 3.5t3 9.5q0 4 -1 7q-4 6 -13 23t-18.5 36.5t-17.5 36.5t-11 24l-5.5 11l-13 26t-17 29t-18.5 20q0 1 -3 1
q-12 0 -19.5 -11t-14 -25.5l-13 -29t-16.5 -21.5q-3 5 -7 6q0 1 -3 1q-26 0 -40 -14.5t-14 -32.5h44l-34 -74l-1 -11q0 -11 11 -13.5t23.5 -4.5t23.5 -7.5t11 -23.5q0 -2 -0.5 -11t-7.5 -9h-233q-4 0 -5.5 3.5t-2 8t0 8t0.5 4.5q0 3 -0.5 12t7.5 11l73 13q9 1 26 22t37 52
t41 67t38 67.5t28 54t11 26.5v6.5t-1 4.5l-51 104h31v8q-12 0 -17.5 2t-15.5 -7l-120 220l-13 13q-10 1 -24 1.5t-26.5 3.5t-21.5 10.5t-9 21.5q0 3 0.5 10t6.5 7h360q7 0 7.5 -9t0.5 -11q0 -16 -11.5 -20.5t-26 -5.5t-26 -3.5t-11.5 -14.5q0 -2 1 -3q4 -10 15 -36t25 -55
t30 -54.5t30 -34.5h3q5 0 22 24.5t35 56t32.5 60.5t14.5 39q0 13 -10.5 16.5t-23.5 5t-23.5 5.5t-10.5 20v11t7 9h240q7 0 7.5 -9t0.5 -11q0 -18 -16 -25t-37 -12t-42.5 -12t-32.5 -25q-10 -16 -30 -47t-40 -63t-36.5 -58t-19.5 -32q-5 -7 -6 -10t-1 -10t1 -9t6 -11z
M120 669q11 0 22.5 -1t11.5 -15q0 -7 -2.5 -11t-11.5 -9q4 -10 9.5 -12t13.5 -2q19 0 30 14q-2 2 -9.5 7l-10.5 7l-6 6v80q-10 -4 -12 -16t-4 -23.5t-7.5 -18.5t-23.5 -2v-4zM247 687q0 4 -1 7.5t-6 5.5q-5 -2 -6 -5.5t-1 -7.5q0 -6 1 -10.5t6 -9.5q5 5 6 9.5t1 10.5z
M307 649q-3 0 -14 -0.5t-13 -8.5q2 -2 10 -7t10 -6q4 -2 7 -2v24zM502 575q-17 0 -20 -6.5t-3 -21.5l1 -20q11 6 16.5 21t5.5 27zM233 530q0 -9 7.5 -13.5t17 -6.5t18 -2.5t11.5 -0.5q0 2 1 7.5t2 12t2 12t1 8.5q1 2 1 7q-5 0 -7 -1q-3 0 -9.5 -1t-14 -2t-14 -2t-9.5 -1
l-7 -14v-3zM375 476q-8 0 -21 -1t-21 -8q6 -6 11.5 -6.5t12.5 -0.5q18 0 18 16zM442 337q0 11 -2 21t-15 10q0 -8 3 -19.5t14 -11.5zM327 360l-7 7q-2 -9 -8.5 -15t-13.5 -12t-12.5 -12t-5.5 -15q1 -2 2 -3q1 -3 5 -3q1 -1 9 -3.5t11 -3.5h6q3 1 8.5 3.5t5.5 3.5v53z
M468 153q0 13 -7 30.5t-8 29.5h-14l1 -13q1 -5 2 -13t2 -15.5t2 -13l1 -5.5h21zM167 20v16.5t-10 10.5h-4q-5 -3 -6 -7q-1 0 -1 -3t1 -4q1 -3 6.5 -16t13.5 -17v20zM714 17q0 11 -5 14.5t-16 3.5q0 -8 2.5 -19.5t11.5 -15.5q6 2 6.5 7t0.5 10z" />
    <glyph glyph-name="cid58" unicode="Y" horiz-adv-x="708" 
d="M707 747q6 0 6.5 -7t0.5 -10q0 -6 -3 -17t-11 -13l-67 -13l-13 -14q-27 -56 -52 -107l-22.5 -45t-22 -45t-20 -41.5t-16.5 -34.5q-5 -9 -11.5 -23.5t-13 -28.5t-11 -24.5l-4.5 -10.5v-265l86 -15q10 -1 12.5 -8.5t2.5 -14.5q0 -6 -2.5 -14.5t-12.5 -8.5h-366q-10 0 -12 8
t-2 14q0 4 1 13.5t6 10.5l80 14q3 0 5 4t4 9t4 13v213l-193 394q-5 9 -12 12.5t-15.5 4.5t-17 2.5t-15.5 7.5l-1 16v4.5t0.5 8t2 8t5.5 3.5h346q7 0 7.5 -9.5t0.5 -11.5q0 -9 -1.5 -15.5t-12.5 -10.5h-15t-23 -2t-21 -6.5t-9 -14.5q0 -7 1 -10q2 -6 7.5 -19t12 -28t12.5 -28
t8 -19q1 -3 3 -8t4.5 -10t4 -9.5t1.5 -5.5q1 -1 1 -3q0 -3 -1 -4q-28 13 -36.5 22.5t-9.5 20t-1.5 25.5t-12.5 39q-5 10 -14.5 17.5t-19.5 14.5t-19 15t-13 20q-5 -13 -10 -19t-11 -10.5t-12.5 -9.5t-13.5 -15q0 -20 4 -42t14 -41t26.5 -31.5t42.5 -12.5q10 0 19.5 4t20.5 4
q21 0 30 -11t16 -30l16 16l51 -102l13 -14q7 5 10.5 11.5t6.5 13t6.5 12.5t10.5 10q1 -5 5 -6t9 -1q7 0 11.5 4.5t6 10.5t2 12.5t0.5 11.5l-1 21q0 1 -3.5 3.5t-3.5 3.5q0 22 8.5 44t20.5 43.5t24.5 43t20.5 42.5v4q0 15 -13 14.5t-28.5 -0.5t-28.5 10t-13 46h243zM107 740
q-3 -1 -12 -4.5t-19.5 -8t-21 -9.5t-14.5 -11q10 -4 17.5 -14t13.5 -20.5t12.5 -18.5t16.5 -8q9 0 21 8t12 19q0 7 -7.5 9t-17 3t-18 3.5t-10.5 11.5q-2 8 3 12.5t12.5 7.5t15 5.5t9.5 7.5q-2 5 -7 7h-6zM202 653q0 -4 -1.5 -11t-7.5 -9q-6 2 -7 9t-1 11h17zM567 597
q0 4 -4.5 6t-10.5 3t-12 1.5t-9 0.5q0 -12 4 -17t15 -5q6 0 11.5 1.5t5.5 9.5zM516 533q7 0 9 4.5t2 9.5q0 13 -10 13h-4q-4 -1 -6 -7q-1 0 -1 -3t1 -3q0 -3 3 -8t3 -6h3zM340 520q-3 -1 -3 3t3 4q3 -1 3 -3.5t-3 -3.5zM177 507q-7 0 -9.5 -5.5t-2.5 -10.5q13 0 15 16h-3z
M452 453q0 5 1 7l3.5 7t3.5 6v-20h-8zM327 447q0 11 -2.5 15.5t-14.5 4.5q-11 0 -23 -9t-23.5 -22t-21 -26.5t-15.5 -22.5q14 -3 26 -5t25 -2q14 0 23.5 6t15 16t8 22t2.5 23zM407 167q1 0 9.5 -3.5t10.5 -3.5q5 0 6 5.5t1 8.5q0 9 -7.5 12.5t-7.5 13.5q0 12 14 20
q-36 2 -53 13t-28 27t-22.5 35t-36.5 38l-6 -6q1 -17 0 -26t-2.5 -16t-3 -14.5t-1.5 -20.5q0 -3 2 -8t5 -10t6.5 -8.5t6.5 -3.5h53q11 0 12.5 -8t1.5 -14q0 -9 -1 -15.5t-6 -15.5h47zM433 273q5 0 5 7t-5 7t-5 -7t5 -7zM401 57q0 2 -1 3q-2 1 -7.5 2.5t-12 2.5t-12 1.5
t-8.5 0.5q-8 0 -13 -4.5t-7 -11t-2.5 -14t-0.5 -12.5q6 0 16.5 2t21 6t18.5 10t8 14zM493 -7q5 0 5 7t-5 7t-5 -7t5 -7z" />
    <glyph glyph-name="cid59" unicode="Z" horiz-adv-x="638" 
d="M613 220l1 -42q0 -38 -1 -69t-6 -69q-19 11 -26.5 0.5t-7.5 -24.5v-3q3 -5 7 -6q0 -1 3 -1t4 1q1 0 6.5 3t6.5 3q2 1 7 1v-21h-591q0 30 10 65t26.5 68.5t37.5 62t43 44.5q0 -2 -1 -7.5t-0.5 -11t3 -10t8.5 -4.5h4q1 0 9.5 3t10.5 4h3q10 0 13.5 -8t3.5 -15
q0 -18 -11.5 -19t-28.5 2q10 -12 17 -25.5l14 -27t15 -26t20 -21.5q6 1 7 5t1 8q0 8 -3.5 14t-7.5 12t-7.5 12.5t-3.5 14.5q0 22 12 34t29 26v14q-16 13 -26 23t-16 19.5t-10 21.5t-8 29l-13 -7q0 2 2.5 7l3.5 7q5 8 20.5 34t36 61t44 74.5t44 74.5t35.5 61t20 35
q3 4 6.5 10.5t6.5 13t5 11.5l2 5l-6 10h-180q2 17 -13 17t-22 -7.5t-11.5 -16.5t-10.5 -16.5t-18 -7.5q0 -42 -12.5 -61.5t-52.5 -24.5v-7h55q0 -5 -1.5 -12.5t-4.5 -15t-7 -13t-9 -5.5h-68q0 11 0.5 31.5t1.5 45t2 50t3 46t4 34t4 13.5h553q5 0 6 -10t1 -13
q0 -14 -4.5 -25.5t-11 -22t-13.5 -21t-11 -22.5l-314 -533q-1 -3 -4 -8.5t-6 -12t-6 -12t-4 -7.5q0 -2 1.5 -7t1.5 -6h251q4 0 8.5 13.5t9 33.5t10 43t11.5 43t12.5 33.5t14.5 13.5h54zM113 680h-46l-7 -7q7 -11 11.5 -15.5t14.5 -4.5t20.5 5.5t20.5 8.5zM473 649
q-7 0 -10.5 -8t-3.5 -14h14v22zM435 555q-9 0 -16.5 -7t-7.5 -17q10 0 17 7.5t7 16.5zM420 443q0 9 -3.5 18l-7 18l-7 18t-3.5 19q-3 0 -6 -3q-8 -8 -10.5 -24t-2.5 -26q0 -17 8 -31t8 -32h4l2.5 4.5t6 11t6.5 13.5t5 11v3zM293 380q1 -1 6 -1q10 0 12.5 5t2.5 14
q0 7 -5.5 11.5t-13 8.5t-15.5 7.5t-13 7.5q-6 -1 -7 -5t-1 -9t1 -6zM160 273q-5 0 -5 7t5 7t5 -7t-5 -7zM153 267q2 -3 -0.5 -5.5t-5.5 -1.5t1 5.5t5 1.5zM140 240q-5 0 -5 6.5t5 6.5t5 -6.5t-5 -6.5zM587 127q0 6 -7 6.5t-10 0.5q-8 0 -12.5 -2.5t-4.5 -11.5q0 -14 14 -14
q7 0 13.5 6.5t6.5 14.5zM535 103q-7 0 -10.5 -5t-4.5 -11q1 -1 3 -1q7 0 9.5 5.5t2.5 11.5zM440 27h-7v-14h7v14z" />
    <glyph glyph-name="cid60" unicode="[" horiz-adv-x="387" 
d="M247 -120q0 -1 7.5 -3.5t12.5 -3.5q5 0 17 -1t26 -2t26 -2t17 -1q12 -4 13 -12.5t1 -16.5l0.5 -4t0 -8.5t-2 -8.5t-5.5 -4h-253v67h6q3 -1 10.5 -6.5t9.5 -6.5q17 8 35.5 21t18.5 35v4q-1 2 -3 8.5t-4 14t-4 14.5t-3 9q-3 0 -11.5 -1t-18 -2t-18 -2t-12.5 -1q-2 -1 -6 -1
v221q7 1 16 8.5t17 15.5t13.5 15t6.5 7v4q0 15 -5.5 29.5t-11.5 28.5t-11.5 27.5t-5.5 27.5q0 31 29 31q13 0 22 -3.5t21 -3.5q0 28 4.5 44.5t4.5 38.5v3q-10 6 -17 10t-17 4q-27 0 -42.5 -16.5t-23.5 -37.5v393h253q7 0 7 -11v-12q0 -16 -9 -23.5t-22 -10t-29 -2.5
t-29 -0.5t-22 -3t-9 -10.5v-860zM347 780q3 1 3 3.5t-3 3.5q-3 0 -3 -4t3 -3zM193 700q5 2 13 6t8 11q0 2 -1 3q-1 4 -6 7h-4q-7 0 -8.5 -7.5t-1.5 -12.5v-7zM187 633v-6h6zM228 600q0 10 -8.5 12t-16.5 2q-4 0 -11 -1t-14 -3t-12.5 -6t-5.5 -11q1 -2 2 -3q3 -3 5 -3
q4 -3 14.5 -8t11.5 -6q4 0 10 3t11.5 7t9.5 8.5t4 8.5zM107 360q-3 -2 -3 6.5t3 6.5q3 -1 3 -6t-3 -7zM107 333q7 -1 7 -10.5v-12.5v-12.5t-7 -10.5v46zM125 -67q0 9 8 14q9 -5 9 -14h-17zM354 -167q0 16 -11 22.5t-25 6.5q0 -5 3.5 -10.5t8.5 -11t9.5 -11t7.5 -9.5
q5 2 6 5.5t1 7.5z" />
    <glyph glyph-name="cid61" unicode="&#xa5;" horiz-adv-x="500" 
 />
    <glyph glyph-name="cid62" unicode="]" horiz-adv-x="387" 
d="M280 -173q-1 -3 -3.5 -8.5t-3.5 -5.5h-253q-5 0 -6 8.5t-1 11.5q0 18 14 27q-6 -8 -2.5 -15.5t11.5 -13t17.5 -9t15.5 -3.5q9 0 20.5 2.5t11.5 15.5q0 3 -1 3l-33 20v7h9.5t19.5 1.5t21.5 4t15.5 7.5q1 22 2 68t1.5 104t1.5 121.5t1.5 121.5t0.5 104v68v240
q0 4 -2.5 16.5t-4.5 16.5q0 1 -2.5 4t-3.5 3l-100 13q-11 2 -12.5 10.5t-1.5 15.5v5t0.5 9t2 9t4.5 4h253q0 -27 0.5 -78t1 -116t1.5 -141t1.5 -154.5t1 -154.5t1 -141.5t0.5 -116v-78.5v-6zM269 727q0 20 -5.5 35t-30.5 25q-5 -2 -6 -5.5t-1 -7.5q0 -22 11 -42.5t30 -31.5z
M267 673q-6 -6 -18.5 -6t-24.5 0.5t-21.5 -0.5t-9.5 -10q0 -14 9 -26t22 -12q5 0 12.5 6.5t14 15t11.5 17t5 12.5v3zM187 600q5 0 5 6.5t-5 6.5t-5 -6.5t5 -6.5zM220 473q-8 11 -14.5 23t-12.5 24h-3q-8 0 -18 -8t-19 -12q8 -15 27 -21t33 -6h7zM253 293q0 9 -7 11.5
t-13 2.5h-6q0 -2 -1 -8t-3 -12t-6 -10.5t-10 -3.5q-9 2 -11.5 8t-2.5 12q0 9 7 12.5t7 11.5q0 11 -9 14t-17 3q-15 0 -25 -10t-10 -27q0 -6 16.5 -18.5t36.5 -24.5t37 -21l17 -9v69zM267 53q-10 -2 -22 -8.5t-23.5 -15.5t-21 -18.5t-13.5 -17.5q2 -5 5 -6t7 -1q27 0 48 10.5
t21 40.5zM267 -113l-7 -7l7 -7v14z" />
    <glyph glyph-name="cid63" unicode="^" horiz-adv-x="615" 
d="M427 420q11 -17 27 -41.5t31.5 -49t28.5 -45.5t19 -31q1 -1 1 -3q0 -8 -5 -14.5t-12 -11.5t-15.5 -8t-15.5 -3q-12 0 -27 19.5t-31.5 48.5t-33.5 62.5t-33 62.5t-31 48.5t-27 19.5q-2 0 -3 -1q-2 -1 -10 -6t-10 -7q6 14 9 20.5t6.5 9t10 2t19.5 -0.5q0 7 -2 20t-7 25.5
t-13 21.5t-20 9q-11 0 -17.5 -10t-6.5 -20q0 -7 3.5 -11.5t7.5 -8.5t7.5 -8.5t3.5 -11.5q0 -2 -0.5 -9.5t-7.5 -7.5h-53q-2 0 -6.5 -9t-9.5 -20t-9.5 -22.5t-7.5 -15.5q-1 0 -1 -3q0 -8 6.5 -11.5t15.5 -5t18 -1t14 0.5q-1 -3 -6.5 -13t-6.5 -13q-5 -8 -17 -28t-26 -42.5
t-26.5 -42.5t-17.5 -27q-4 -9 -8 -11.5t-11 -2.5t-15 3.5t-15.5 9t-12.5 12t-5 12.5q0 7 12.5 31t32.5 56.5t43 69t45 69t38.5 57.5t22.5 34l6 6h54q5 0 18 -18t27 -41t26 -45t15 -29q-3 1 -13.5 1t-12.5 -8q2 -2 9.5 -10t10.5 -10h6zM273 440q-5 0 -5 6.5t5 6.5t5 -6.5
t-5 -6.5z" />
    <glyph glyph-name="cid64" unicode="_" horiz-adv-x="608" 
d="M27 -107v100h546v-100h-546zM433 -13l7 -14h3q5 0 8.5 4.5t3.5 9.5h-22zM440 -77q0 -6 5 -8.5t10 -2.5q0 4 -1 11.5t-7 9.5q-6 -2 -7 -6v-4zM360 -100q6 0 10.5 8.5t4.5 13.5q-5 0 -16 -1t-22.5 -3t-22 -6.5t-14.5 -11.5h60z" />
    <glyph glyph-name="cid64" unicode="&#x332;" horiz-adv-x="608" 
d="M27 -107v100h546v-100h-546zM433 -13l7 -14h3q5 0 8.5 4.5t3.5 9.5h-22zM440 -77q0 -6 5 -8.5t10 -2.5q0 4 -1 11.5t-7 9.5q-6 -2 -7 -6v-4zM360 -100q6 0 10.5 8.5t4.5 13.5q-5 0 -16 -1t-22.5 -3t-22 -6.5t-14.5 -11.5h60z" />
    <glyph glyph-name="cid65" unicode="`" horiz-adv-x="453" 
d="M321 653q0 -10 -7.5 -15.5t-16.5 -5.5q-20 0 -39.5 16.5t-30.5 31.5q22 0 32.5 6t10.5 25q-20 0 -30.5 -9.5t-26.5 -14.5q-10 -3 -31 11.5t-42 35.5t-37 43.5t-16 35.5q0 31 18.5 46t45.5 15q6 0 15.5 -1t19 -3.5t16 -7.5t6.5 -14q-6 0 -15 -4.5t-18 -10.5t-16.5 -11.5
t-11.5 -8.5q-1 -1 -1 -3q0 -3 1 -3q0 -2 1.5 -8t4 -12.5t4.5 -12t3 -7.5q12 9 18.5 18t12.5 18t13.5 16.5t22.5 13.5q12 -20 28.5 -41.5t31 -45t24.5 -47t10 -46.5zM213 833q-5 0 -5 7t5 7t5 -7t-5 -7z" />
    <glyph glyph-name="cid65" unicode="&#x300;" horiz-adv-x="453" 
d="M321 653q0 -10 -7.5 -15.5t-16.5 -5.5q-20 0 -39.5 16.5t-30.5 31.5q22 0 32.5 6t10.5 25q-20 0 -30.5 -9.5t-26.5 -14.5q-10 -3 -31 11.5t-42 35.5t-37 43.5t-16 35.5q0 31 18.5 46t45.5 15q6 0 15.5 -1t19 -3.5t16 -7.5t6.5 -14q-6 0 -15 -4.5t-18 -10.5t-16.5 -11.5
t-11.5 -8.5q-1 -1 -1 -3q0 -3 1 -3q0 -2 1.5 -8t4 -12.5t4.5 -12t3 -7.5q12 9 18.5 18t12.5 18t13.5 16.5t22.5 13.5q12 -20 28.5 -41.5t31 -45t24.5 -47t10 -46.5zM213 833q-5 0 -5 7t5 7t5 -7t-5 -7z" />
    <glyph glyph-name="cid66" unicode="a" horiz-adv-x="599" 
d="M510 60q0 -2 4 -5t9 -6t10 -5.5l7 -3.5q-6 -6 -6.5 -12.5t-0.5 -14.5v-11t7 -9q-5 -8 -14.5 -12t-20 -6t-21.5 -2h-19q-39 0 -65.5 15t-52.5 45q-3 1 -7 1q-18 0 -37 -9.5t-39 -21t-41 -21t-43 -9.5q-29 0 -56.5 9t-49 26t-35 42t-13.5 57q0 4 1 6q2 3 14.5 13.5
t26.5 22.5t25 23.5t11 17.5q-19 0 -31 -7.5t-33 -9.5v4q0 29 20 49t50.5 34t67 24t69 18.5t56.5 17t30 20.5l1 50q0 23 -2.5 45.5t-11 40t-25.5 28t-45 10.5h-19t-18 -7q-3 -25 -6.5 -52t-12.5 -49.5t-26.5 -37.5t-48.5 -15q-27 0 -50 12.5t-23 43.5q0 37 19.5 65.5t49 48
t65 29.5t67.5 10v-20q11 0 20.5 9.5t12.5 21.5q2 0 23.5 -1t46 -4.5t44.5 -9.5t20 -15q0 -2 -1 -3q0 -1 -6 -3.5t-7 -3.5q-1 0 -1 -3t1 -3q3 -2 10.5 -4.5t9.5 -2.5q1 0 6.5 6.5t6.5 6.5q1 1 4 1q2 0 3 -1q13 -12 25.5 -26t22.5 -30t16 -34t6 -36v-347zM355 538q0 14 -10 16
t-21 2q0 -12 11 -15t20 -3zM427 533q-5 0 -5 7t5 7t5 -7t-5 -7zM380 367q1 -1 3 -1q11 0 18 6.5t11.5 15t7.5 17.5t7 15q5 9 14 12.5t18 6.5t15.5 6.5t6.5 12.5v12t-8 10h-60q-2 -2 -3 -5l-2 -4t-1 -4q-1 -2 -3.5 -10.5t-3.5 -9.5q-1 -2 -5 -6.5t-8.5 -10.5t-8.5 -11t-5 -6
v-6zM180 403q0 10 -8.5 10.5t-14.5 0.5q-10 0 -23.5 -3t-13.5 -18q0 -4 2.5 -16.5t4.5 -16.5q2 -1 6 -1h5q1 0 2 1l6.5 7t14 15t13.5 14.5zM447 233q4 16 7 24.5t9 12.5t15 5t25 1q0 4 -0.5 13t-1 19t-1 19t-0.5 13q-1 13 -2.5 17t-9.5 4q-10 0 -20 -18t-18.5 -40.5t-14 -43
t-5.5 -26.5h17zM333 284q-29 0 -54 -12.5t-44.5 -33t-30.5 -47t-11 -53.5q0 -15 3 -29t9.5 -25t18 -18t29.5 -7q6 0 19.5 3t27 8.5t23.5 13t10 16.5v184zM367 251q0 10 -6 17t-17 7l-0.5 -7t0 -14.5t3.5 -14t10 -6.5t8.5 6t1.5 12zM493 240q3 1 3 3.5t-3 3.5q-3 0 -3 -4
t3 -3zM147 222q-7 0 -12.5 -6t-7.5 -9h20v15zM480 220q-4 -1 -10 -4t-6 -9h16v13zM140 87q-2 -13 -8 -30t-6 -30h7q8 0 15.5 6.5t13 16t9 19.5t3.5 18h-34zM600 57q0 -11 -10 -21.5t-17 -15.5q3 6 1.5 10t-5 8.5t-6.5 8.5t-3 10q0 8 6.5 12.5t13.5 4.5t13.5 -4.5t6.5 -12.5z
M320 47l-7 13q-14 -11 -14 -29q6 0 13.5 2t7.5 10v4zM407 53l-7 -6q2 -5 7 -7h6zM433 27q0 -20 12 -31t30 -11q0 14 -14 29t-28 19v-6z" />
    <glyph glyph-name="cid67" unicode="b" horiz-adv-x="689" 
d="M273 80q0 -5 10 -9t22.5 -6.5t23.5 -3.5t14 -1q33 0 54.5 14t35.5 36.5t21.5 49.5t12.5 53q4 -2 17 16.5t29 42t30.5 43t22.5 19.5q7 0 12.5 -4t11.5 -4q4 0 9.5 5.5t10 12.5t7.5 13.5t3 9.5q1 5 -5.5 17.5t-15 27.5t-16.5 30t-10 25t-5.5 23t-7.5 23q1 1 3 1
q16 0 29 -14.5t23 -37.5t17.5 -50.5t12 -54t7 -48.5t2.5 -33q0 -7 0.5 -18.5t0 -24t-2 -25t-5.5 -21.5q0 9 -4 11.5t-9 2.5q-2 0 -3 -0.5t-2 -0.5h-2q-3 -1 -8.5 -4.5t-12 -8t-12 -8.5t-7.5 -6q-1 -1 -1 -3q0 -15 4.5 -21.5t11 -10.5t13.5 -7t12 -11q-29 -66 -85 -106.5
t-129 -40.5q-42 0 -71.5 12t-68.5 35q-2 1 -6 1q-9 0 -12 -7.5t-5 -16.5t-5.5 -16.5t-13.5 -7.5h-4q-3 1 -11 2.5t-16.5 2.5t-16 1.5t-10.5 0.5q0 2 -2.5 7t-3.5 6t-4 1q-7 0 -10.5 -7t-11.5 -7q-27 0 -58 -0.5t-56 13.5l-1 17q0 15 9.5 20t21 6.5t21 2.5t9.5 8v686
q0 5 -10.5 6.5t-23 3.5t-23 6.5t-10.5 16.5q0 10 13.5 18.5t35 15.5t47.5 12t50.5 8.5t44.5 5t30 1.5q6 0 16 -1t10 -13v-273q0 -4 4.5 -10.5t8.5 -9.5q34 20 70.5 33.5t76.5 13.5q13 0 31.5 -2.5t37 -8t34 -14.5t23.5 -22q-20 -9 -48 -8t-45 1l-13 -23h-47v-18
q-9 0 -13 4.5t-6.5 10t-5 10t-8.5 4.5q-3 0 -18 -5t-32 -12t-30.5 -14t-13.5 -10v-380zM268 490q-17 0 -27 0.5t-15.5 4.5t-8 12.5t-4.5 25.5q-3 -3 -9.5 -6.5t-13.5 -8t-13.5 -9.5t-9.5 -9q15 -2 25 -11t18 -18.5t16 -17t18 -7.5q6 0 10.5 5t7.5 11.5t4.5 14t1.5 13.5z
M477 260q-9 50 -16.5 96t-33.5 91q9 1 21.5 7.5t24.5 14t22 13.5t15 6q8 0 19 -11t21 -25t17 -28t7 -20q0 -19 -15 -29t-33.5 -16t-33.5 -11t-15 -15v-73zM220 293q1 1 1 4q0 6 -6.5 12.5t-15.5 12t-18 9t-14 3.5q-8 0 -12 -7.5t-6 -17.5t-2.5 -20t-0.5 -16q0 -9 8 -15
t17 -6v15.5t2.5 15.5t7.5 12t16 5h3zM153 167q1 -1 4 -3.5t3 -3.5q1 -2 2.5 -4t2.5 -4q1 -3 2 -5q0 -9 -7.5 -14.5t-16 -11t-16 -12t-7.5 -16.5q0 -5 5 -6t8 -1q5 0 7 1q7 9 25.5 21.5t38.5 25t36.5 23t19.5 16.5q-3 9 -11.5 13t-19 6t-21.5 2h-19q-12 0 -18.5 -4t-17.5 -17
v-6zM547 193l-47 -6q-4 -9 -11.5 -16t-15.5 -14.5t-14 -15.5t-6 -18v-3q3 -4 7 -7h3q7 0 12 3.5t12 3.5t11.5 -3.5t11.5 -3.5h3q1 6 6.5 17.5t11.5 24t11 22.5t5 13v3zM640 160q-5 0 -5 6.5t5 6.5t5 -6.5t-5 -6.5zM633 133q-5 0 -5 7t5 7t5 -7t-5 -7zM500 73
q-10 -7 -18 -10.5t-19 -3.5q-7 0 -10 3.5t-5.5 7.5t-5 7.5t-8.5 3.5q-5 0 -10 -2.5t-5 -8.5q0 -3 1 -3q8 -8 13.5 -14t9.5 -12t6 -13.5t4 -20.5q3 -1 7 -1q27 0 34 15.5t7 38.5zM537 30q-23 0 -37 -23q3 -1 10 -1q13 0 20 5t7 19zM53 20q-8 -5 -8 -13h8v13z" />
    <glyph glyph-name="cid68" unicode="c" horiz-adv-x="579" 
d="M467 527q15 0 29.5 -15.5t25.5 -36.5t18 -43.5t7 -35.5t-7 -23.5t-17.5 -18t-23.5 -11.5t-25 -4q-15 0 -21 4.5t-10 10.5t-8 11.5t-15 7.5q-2 1 -7 -1.5t-6 -4.5q2 8 -3 32t-14 49.5t-20.5 45.5t-22.5 20q-33 0 -56 -16t-38.5 -41.5t-24.5 -58t-13.5 -65t-6 -62.5
t-1.5 -51q0 -2 1 -10t2 -10v20q11 -30 25.5 -59.5t34.5 -52t47 -36t63 -12.5q21 0 40 10t36 21t33.5 20.5t33.5 9.5q18 0 18 -18q0 -10 -7.5 -21.5t-18 -22.5t-20.5 -19.5t-15 -12.5q-1 1 -4.5 5t-8 8.5t-8.5 8t-6 4.5l-6 1q-3 0 -8.5 -1t-5.5 -6q0 -1 2.5 -9t4.5 -11
q0 -1 3 -7t4 -7v-3q0 -12 -18 -19t-41.5 -11t-45 -5.5t-28.5 -1.5q-64 0 -117 22.5t-91 62t-59 93t-21 116.5q0 65 23 120t64 95t96.5 62.5t120.5 22.5q25 0 50 -3.5t47 -16.5q-23 -3 -34 -20q11 -13 18 -18.5t15 -6.5t18.5 0t27.5 1q1 1 1 2v2q-1 2 -6 10t-7 10h7zM440 540
q-1 -3 -3.5 -3t-3.5 3q0 3 4 3t3 -3zM453 533q0 -3 -3 -3t-3 3q-1 3 3 3t3 -3zM140 287q-22 -16 -28 -26t-6 -29v-16t10 -10q6 0 14.5 2.5t17 7t14 10.5t5.5 13q0 4 -1.5 12t-4.5 16t-7.5 14t-10.5 6h-3z" />
    <glyph glyph-name="cid69" unicode="d" horiz-adv-x="673" 
d="M587 47q0 -7 9.5 -8t20.5 -2t20.5 -5.5t9.5 -18.5q0 -18 -27.5 -26t-64 -9.5t-72.5 0t-54 1.5l-2 34q-1 2 -3.5 4.5t-3.5 2.5q-19 0 -38 -7.5t-38.5 -16t-39 -16t-40.5 -7.5q-58 0 -99 22.5t-78 64.5q1 4 -8 22.5t-20.5 41.5t-21.5 46t-10 37l-1 64q0 55 16 108t48 95
t78.5 67.5t108.5 25.5q17 0 32.5 -5.5t30.5 -11.5t30 -11.5t31 -5.5q10 0 13.5 6.5t5.5 20.5q8 -3 13.5 -8.5t13.5 -5.5q4 0 6 1q-1 9 -2.5 18t-4.5 16.5t-9 12t-17 4.5v82q9 4 7 5.5t-2 7.5h-5q-4 24 -18 32t-29.5 11.5t-27.5 8.5t-12 22q0 19 27.5 31t64.5 18.5t75 8.5
t59 2q6 0 17 -1t11 -13v-766zM407 780q-2 5 -5.5 6t-8.5 1q-15 0 -15 -16q3 0 15 0.5t14 8.5zM573 723q-11 0 -19 -7t-12.5 -17.5t-6.5 -22t-2 -20.5q0 -10 5 -16.5t15 -6.5q6 0 13 2.5t7 11.5v76zM520 547q12 -3 23.5 -6t23.5 -8q1 3 1 10q0 12 -8 21.5t-20 9.5
q-8 0 -14 -7.5t-6 -16.5v-3zM487 493q12 0 20 14q-3 5 -7 6q-1 1 -3 1q-7 0 -11 -8t-6 -13h7zM540 460q2 -6 7.5 -6.5t9.5 -0.5q17 0 17 17q0 3 -1 3q0 2 -2.5 7l-3.5 7zM403 273q2 2 5.5 7t4.5 7q1 0 1 3q0 2 -1 3q0 1 -1 6t-2 11t-2 10.5t-1 6.5q-1 7 -2.5 26t-2.5 40.5
t-1.5 40.5t-0.5 26q-9 14 -29 17.5t-34 3.5q-49 0 -75 -29.5t-38.5 -71.5t-15.5 -88t-5 -79v74q-2 2 -4 3l-6 3q0 1 -3 1t-3 -1q-8 -1 -21 -6.5t-13 -16.5q0 -5 4 -18.5t10.5 -28t14 -26t15.5 -11.5q6 0 10.5 8t5.5 13q2 -12 6.5 -25t9 -25.5t8 -24.5t3.5 -22v-3q-8 7 -21 7
q-14 0 -24 -12t-10 -25q0 -4 2 -10q2 -2 8.5 -5t14 -6t14.5 -5.5t9 -3.5q1 0 3.5 -0.5t4.5 -0.5q6 0 9 5t5 12t3 14t2 10q18 -12 38 -19.5t42 -7.5q2 0 12 1.5t21.5 4t20.5 6t9 8.5v193zM60 333q7 3 22.5 10t31.5 14.5t28 14t12 8.5q0 4 -1 7l-26 -7h-7q-12 4 -22 15.5
t-21 11.5h-4q1 -19 -5 -37t-21 -30q1 -4 6 -7h7zM487 200q1 -2 6 -7t7 -6q1 -1 3 -1q3 0 4 1l1 1l2 2l3 3q0 4 -2.5 14t-3.5 13zM253 100q5 0 5 -6.5t-5 -6.5t-5 6h-1q-5 0 -5 7t5 7t5 -7h1zM500 87q-7 -13 -14 -27t-7 -29l14 2q6 3 19 7.5t27 9.5t24.5 9l10.5 4
q0 7 -7.5 12t-17 7.5t-19 3.5t-13.5 1h-17z" />
    <glyph glyph-name="cid70" unicode="e" horiz-adv-x="586" 
d="M500 300q3 1 7 7q-3 19 0 33t8.5 26t12.5 24.5t12 29.5q7 -9 10 -22.5t4 -27.5t0.5 -28t-0.5 -24v-9v-12t-0.5 -11t-0.5 -6l-6 -13h-234q-2 1 -9.5 3.5t-10.5 2.5q-1 0 -6.5 -3t-6.5 -3q-3 -1 -11.5 -2t-18.5 -2t-18.5 -2t-11.5 -1q-5 -9 -15 -14l-20 -10t-17.5 -12
t-7.5 -21q0 -7 8 -10t12 -6q7 -5 7 -11t2 -13.5t9.5 -18t28.5 -24.5q13 -9 23.5 -24.5t10.5 -32.5q0 -10 -5.5 -16t-11.5 -11.5t-11.5 -12t-5.5 -16.5q0 -3 2.5 -10.5t3.5 -9.5q-2 -1 -6 -1q-50 0 -87.5 28.5t-62.5 70.5t-38 90.5t-13 87.5q0 63 21 118t59 96.5t91.5 65.5
t119.5 24q32 0 65.5 -7.5t63.5 -23t53 -39.5t34 -57q-6 -1 -17 -13.5t-22 -27.5t-19.5 -28.5t-8.5 -16.5q0 -6 3 -14t7.5 -15.5t9 -14t7.5 -10.5h7zM360 320q11 0 16.5 7.5t8 18t2.5 21.5v17q0 19 -3 42t-11 42.5t-23.5 32.5t-40.5 13q-26 0 -42 -14t-26 -34t-16 -43.5
t-12 -42.5l-6 7v101q-12 0 -18.5 -6t-10 -14.5t-4.5 -18.5t-1 -18q0 -5 4 -16t10 -21.5t13 -18.5t13 -8v-40q1 -2 3.5 -4.5t3.5 -2.5h140zM413 382q-9 0 -13 -9h13v9zM114 250q0 16 -4 29t-4 28q0 8 4 15t4 15q0 2 -1 3q-14 -6 -26 -8t-21 -6.5t-14.5 -13.5t-5.5 -29
q0 -9 7.5 -13t16 -8t16 -10t7.5 -19t-7.5 -23.5t-7.5 -25.5q13 0 20 7.5t10.5 18t4.5 21.5t1 19zM220 167q-3 -2 -3 6.5t3 6.5t3 -7t-3 -6zM227 153q-5 0 -5 7t5 7t5 -7t-5 -7zM327 -13q-16 5 -31.5 12.5t-15.5 26.5q0 14 4 27.5t4 27.5q21 0 43 -10.5t46 -10.5
q42 0 75 18.5t61 48.5q3 1 10 1q6 0 15 -2.5t9 -12.5q0 -33 -25.5 -59t-60.5 -44t-72.5 -27.5t-61.5 -9.5h-20q3 9 8.5 7t11.5 -2v9zM273 100q7 0 5 -7h2q5 0 5 -6.5t-5 -6.5q-7 0 -5 7h-2q-5 0 -5 6h-1q-5 0 -5 7h-2q-7 0 -5 7h-2q-5 0 -5 6h-1q-5 0 -5 7t5 7t5 -7h1
q7 0 5 -7h2q5 0 5 -6h2q5 0 5 -7h1zM155 44v9t-1 14.5t-3.5 13.5t-6.5 6q-8 0 -13 -6.5t-5 -13.5q0 -12 9.5 -17.5t19.5 -5.5zM500 53q5 0 5 7t-5 7t-5 -7t5 -7zM253 -20q6 5 10 6t11 1q4 0 7.5 -1t5.5 -6h-34z" />
    <glyph glyph-name="cid71" unicode="f" horiz-adv-x="409" 
d="M200 767q32 37 78 55t95 18q20 0 44.5 -4.5t46 -15t36 -28t14.5 -42.5q0 -17 -8 -29t-20 -20t-26.5 -11.5t-27.5 -3.5q-26 0 -44 13.5t-31 30t-22.5 30.5t-17.5 14q-12 0 -19.5 -13t-13 -30t-8 -34t-3.5 -24q-1 -10 -2.5 -26.5t-2 -33t-1 -28.5l-0.5 -12l6 -23h120
q3 0 4.5 -4.5t2 -10t1 -10.5t0.5 -6q0 -6 -2 -17.5t-12 -11.5h-114v-430q0 -15 14.5 -18t32.5 -3.5t32.5 -5t14.5 -23.5v-3q-1 -3 -3.5 -8.5t-3.5 -5.5h-336q0 19 4 28q0 3 2 5q6 11 15 13t18 1.5t16 -0.5t8 7l6 73l-6 370h-60q-4 0 -5.5 4t-2 9t-0.5 9.5v4.5q0 18 9 22
t21.5 4.5t25 2t18.5 14.5q17 36 25.5 73t28.5 74q5 10 13.5 16.5t17.5 12t17 11t12 13.5zM487 780q0 3 -4 3t-3 -3t3.5 -3t3.5 3zM280 740q5 0 5 6.5t-5 6.5t-5 -6.5t5 -6.5zM200 567q2 9 -6 13.5t-18.5 6.5t-20 2h-10.5v-11t1 -14t4 -12.5t9 -5.5q9 0 23.5 4.5t17.5 16.5z
M387 513h-7v-6h7v6zM230 467q-8 0 -13 -3t-5 -12q8 0 15.5 5t12.5 10h-10zM228 372q0 7 -1.5 14.5t-6.5 13.5q-5 -2 -13 -6t-8 -11q0 -4 4 -6.5t9 -3.5t9.5 -1h6.5zM233 327q5 0 5 6.5t-5 6.5t-5 -6.5t5 -6.5zM108 113q0 -6 5 -6t5 6.5t-5 6.5h-1q0 7 -5 7t-5 -7t5 -7h1z
M112 120q-4 0 -4 -7q4 1 4 7zM120 107q4 -10 9.5 -12.5t13.5 -2.5q7 0 10 1q-3 8 -12.5 11t-17.5 3h-3zM213 40q-1 6 -4.5 14t-9 15.5t-12.5 13t-14 5.5q-4 0 -6 -1q6 -15 12.5 -31.5t23.5 -16.5q7 0 10 1zM33 13q5 0 5 7t-5 7q-2 0 -3 -1q-2 -4 -2 -5q0 -8 5 -8z" />
    <glyph glyph-name="cid72" unicode="g" horiz-adv-x="611" 
d="M480 450q0 2 -4.5 12.5t-10.5 22.5t-11.5 22.5t-6.5 12.5q15 4 30.5 11t31 13.5t31 11.5t31.5 5q9 0 19.5 -2.5t10.5 -15.5q0 -2 -1 -3h-11.5t-13 -2t-11 -6t-4.5 -12q0 -10 6.5 -14.5t14 -7.5t14 -6.5t6.5 -10.5q0 -3 -1 -8.5t-7 -5.5h-92q0 -24 3 -47t3 -47
q0 -50 -19 -86t-51 -60t-73.5 -35.5t-86.5 -11.5h-39.5t-40.5 4.5t-31.5 16.5t-12.5 35v4q1 2 2.5 12t2.5 21.5t1.5 21.5t0.5 12v7q0 11 -6 19t-17 8q-19 0 -25 -16t-6 -31q0 -10 4.5 -13.5t9.5 -6t9.5 -6t4.5 -13.5q0 -11 -3.5 -20.5t-7.5 -19t-7.5 -19t-3.5 -20.5
q0 -8 8.5 -20.5t20.5 -24t24.5 -20t21.5 -8.5h233q33 -10 63 -22t53 -29.5t37 -43.5t14 -65q0 -13 -1.5 -28.5t-6.5 -29.5t-14 -24.5t-25 -13.5l7 -14q4 -8 -6 -17.5t-27.5 -19t-40 -19t-44 -16.5t-38.5 -11.5t-23 -4.5q0 15 -14 15q-10 0 -17 -3.5t-17 -3.5
q-20 0 -35.5 11.5t-31.5 22.5l55 5t64 12t53 27.5t22 51.5q0 21 -10 37t-24 30h22q0 25 6 38t13.5 20t13.5 9.5t6 5.5q0 11 -5.5 16t-13.5 7t-16.5 1.5t-15.5 -0.5h-30q-13 -10 -13 -27q0 -18 9 -34.5t18 -32.5h-34q-5 1 -21 1.5t-38 1.5t-46.5 1.5t-46.5 1t-39 1t-22 0.5
h-4q-12 0 -18 -7t-8.5 -17t-3 -21t-0.5 -18q0 -79 81 -104q-9 1 -12 -3t-3 -10q0 -4 1 -7q12 -12 26 -16t28.5 -6t29.5 -5t30 -13h-57q-35 0 -76 5t-77 20t-60 42.5t-24 73.5q0 36 20 59t47 47v3q0 11 -6.5 21.5t-14 21.5t-14 23.5t-6.5 27.5q0 39 21 73t47 63v7
q-8 8 -19.5 21t-22 27.5t-18 29.5t-7.5 29v100q0 40 26 67t63 43.5t78 23t70 6.5q9 0 33.5 -1t50.5 -5t46 -12.5t20 -24.5v-4q-1 -1 -4 -6.5t-3 -6.5v-67l-20 -20q2 -5 5.5 -6t7.5 -1q18 0 38.5 9t28.5 25v3zM245 560q0 -6 2 -13t10 -7q7 0 9.5 7t2.5 13h-24zM173 540h-13
v-7h13v7zM354 373q0 18 -2.5 43t-10.5 48t-23.5 39.5t-40.5 16.5q-27 0 -42.5 -17t-23.5 -41t-10 -49.5t-2 -42.5t2.5 -41.5t10 -47t22 -38.5t39.5 -16q27 0 43 16t24.5 38.5t11 48t2.5 43.5zM94 400q0 4 -1 7q-16 -4 -31.5 -8t-15.5 -22q0 -9 3 -13.5t12 -4.5q3 0 8.5 5
t11 11.5t9.5 13.5t4 11zM73 80l-3.5 -3.5t-2.5 -3.5q0 -14 12.5 -16t22.5 -2q0 10 -7 17.5t-18 7.5h-4zM297 42q-12 0 -22.5 -8.5t-18.5 -20.5t-12.5 -25.5t-4.5 -23.5q5 0 14.5 11t19.5 24.5t17 26t7 16.5zM173 2h-10t-14.5 -1.5t-13 -4.5t-5.5 -9h43v15zM513 -64
q-14 0 -27.5 -4.5t-25.5 -11.5q0 -3 -1 -11.5t-2 -18.5t-2 -19t-2 -11v-11q0 -15 15 -22t29 -7h3q2 2 4.5 7t2.5 6q-4 8 -11 12t-13.5 8.5t-11.5 10t-5 16.5q0 23 14 34t33 13v9z" />
    <glyph glyph-name="cid73" unicode="h" horiz-adv-x="700" 
d="M580 -7q-7 19 -14 28t-24 9q0 -8 -2 -9.5t-2.5 -2.5t2.5 -5.5l13 -19.5h-146q8 10 6 15.5t-2 18.5h-34q0 9 8 11.5t18 3.5t19 2.5t11 8.5q6 35 7.5 70.5t-0.5 69.5l7 14v6l-7 14v149q14 0 27 9.5t13 24.5q0 7 -3 16t-6.5 18.5t-7 18.5t-3.5 17l-17 1q-10 0 -38 -1.5
t-57 -6.5t-52 -16t-23 -30v-374q0 -8 8.5 -10.5t18.5 -4.5t18.5 -7t8.5 -18v-11t-7 -9h-180q2 11 -4.5 13t-12.5 2q-8 0 -10.5 -3t-5 -6.5t-6.5 -6.5t-14 -3v36q-18 0 -20.5 -4t-2.5 -28h-40q0 29 10.5 37.5t22.5 9.5t22.5 -0.5t10.5 7.5v180l17 6l-14 14v200
q14 -10 25 -23.5t15 -30.5q13 19 37 23.5t43 3.5q-14 4 -29 14.5t-28.5 24t-25 28t-17.5 26.5q-1 3 0.5 9t3.5 13t3.5 13t1.5 9h-29v56q0 10 10.5 15.5t23.5 9t25 6.5t15 9v7q-1 1 -3 6t-4 10.5t-4 10.5t-3 6v7q2 3 7 13.5t7 13.5h-4q-8 0 -16 -3.5t-17 -3.5q-8 0 -26.5 4
t-37.5 11t-33 15t-13 16q0 17 27 28.5t64 19t74 10.5t57 3q6 0 17 -1.5t11 -12.5v-310q20 0 40.5 10t42 22t44 22t46.5 10q35 0 66.5 -12.5t55.5 -34.5t38 -52.5t14 -67.5v-347q0 -12 9 -12t20.5 -1.5t20.5 -10t9 -36.5h-96zM107 690q0 -5 -4.5 -8.5t-9.5 -3.5v22h7
q3 -1 7 -7v-3zM227 693h-7l7 -6v6zM220 620q-2 5 -5.5 6t-7.5 1h-7q2 -6 5.5 -6.5t7.5 -0.5h7zM200 520q-1 3 -7 7h-6q2 -6 6 -7h7zM220 253q2 -2 7 -7.5t6 -5.5q7 -2 11.5 1.5t6.5 9.5t2.5 12t0.5 9q0 11 -4 19.5t-20 8.5h-3l-7 -40v-7zM603 213q0 3 -1 13.5t-2 13.5
q0 1 -2.5 3.5t-4.5 3.5l-3.5 -3.5t-2.5 -3.5q-1 -3 -2 -13.5t-1 -13.5h19zM275 16q0 14 -6.5 36.5t-15.5 34.5q-5 -12 -17.5 -18t-25 -10.5t-20.5 -11t-3 -20.5q0 -2 8 -9.5t12 -10.5q0 -1 3 -1q16 0 31 5t34 5z" />
    <glyph glyph-name="cid74" unicode="i" horiz-adv-x="358" 
d="M273 740q0 -14 -5 -29t-14.5 -28t-22.5 -21.5t-28 -8.5q-5 0 -6 2l-2.5 5t-4 5t-9.5 2q-10 0 -17.5 -3.5t-16.5 -3.5q-14 0 -25 8t-19 20t-12 26t-4 26q0 40 28 63.5t65 23.5t65 -23.5t28 -63.5zM100 767l7 -7l6 7h-13zM273 53q0 -2 5.5 -7t8.5 -6q2 -1 7.5 -2.5t12 -2.5
t12 -1.5t8.5 -0.5q5 -6 6 -11t1 -12q0 -13 -6 -15t-18 -2h-17q9 3 7 8.5t-2 11.5h-24l-1 -6l7 -14h-120q-9 18 -32.5 26t-41.5 8q-10 0 -14 -5.5t-6 -12t-5.5 -12t-12.5 -5.5q-11 0 -16.5 3t-5.5 15q0 7 1 12t6 11q6 1 15.5 2t19 3t17 7t8.5 15q-1 79 1 160t6 160
q10 -4 21 -11t22.5 -14.5t22.5 -13t20 -5.5q0 2 -4 12.5t-9.5 22t-12.5 20.5t-13 9h-47q-3 36 -16 47t-27.5 14t-26 5.5t-11.5 20.5q0 4 0.5 11t7.5 9l73 20q14 4 36.5 9.5t44 10.5t37 9l15.5 4h27q-7 -2 -20.5 -6t-13.5 -13t5.5 -13.5t13 -6.5t15.5 -2.5t13 -0.5v-465z
M153 514q-4 0 -6 -1q-2 0 -7 -2.5l-7 -3.5q3 -4 8.5 -10t11.5 -6v23zM260 380l-7 -7h7v7zM230 173q0 -5 -0.5 -13t0.5 -15.5t4.5 -13t12.5 -5.5q8 0 11.5 5.5t4.5 13t0.5 15.5t-0.5 13h-33zM131 137q-16 0 -21 -8.5t-5 -22.5q15 0 20.5 8t5.5 23z" />
    <glyph glyph-name="cid75" unicode="j" horiz-adv-x="347" 
d="M213 807q3 5 7 6q1 1 4 1q13 0 20.5 -9t11 -21t4.5 -25t1 -21q0 -42 -25.5 -63.5t-65.5 -21.5q-18 0 -34.5 6.5t-28.5 18.5t-19.5 28t-7.5 34q0 22 8.5 38.5t23 27.5t33 17t38.5 6q0 -9 -8.5 -14.5t-14.5 -7.5h53zM247 767h-7v-7h7v7zM220 683q0 11 -13 11
q-11 0 -13.5 -7t-2.5 -16q5 0 17 1t12 11zM267 520q0 -13 -0.5 -39.5t-1.5 -60t-1.5 -70.5t-1.5 -70.5t-1.5 -60t-0.5 -39.5q-3 2 -6.5 0t-7.5 -5.5t-8.5 -6.5t-8.5 -3q0 8 3 11t6 5l6 4t3 8q0 4 -1 8t-6 6q-16 -19 -39.5 -26.5t-47.5 -0.5q-5 -2 -6 -5.5t-1 -7.5
q0 -12 10.5 -16.5t19.5 -4.5q12 0 22.5 4t22.5 4q16 0 22.5 -12t3.5 -29l13 7l1 -77q0 -58 -13 -116t-42.5 -104t-76.5 -75t-116 -29q-17 0 -42 3t-48.5 11.5t-40 23.5t-16.5 38q0 12 2.5 23t9 18.5t17 10.5t25.5 0q-1 1 -3.5 6l-3.5 7v4q0 4 6.5 6.5t15 3t15.5 0.5h9
q23 0 40 -11.5t30 -26t23 -26t18 -11.5q3 0 3 1q8 12 12 34t6 45.5t2 44v29.5h27q1 7 -2.5 10.5t-9 5.5t-11 2.5t-7.5 0.5v468q0 14 -12 17.5t-26.5 5t-26.5 5.5t-12 19q0 7 4.5 13.5t12.5 6.5h3q2 -1 10.5 -4t9.5 -3h7l-7 13q43 16 92.5 32t94.5 16q27 0 27 -29v-12z
M233 500q-5 -5 -16.5 -9.5t-22.5 -9t-19.5 -10t-8.5 -14.5q0 -7 4 -12t4 -12q0 -3 -1 -8t-6 -5h-60q-1 0 -4 -2.5t-3 -4.5q-1 -2 -1.5 -10t-0.5 -10q4 0 25.5 2t46 6.5t44 10.5t19.5 15v73zM213 77q0 -12 10 -22t22 -10q0 13 -6 24t-19 18q-4 -3 -7 -7v-3zM27 -200l-7 7
q-17 -2 -26 -1t-14.5 2.5t-11 3.5t-16.5 2q0 -11 5.5 -25t14.5 -26.5t19.5 -21t21.5 -8.5q3 0 8.5 1t5.5 6v60zM150 -200q-10 0 -15 -10t-5 -18q9 0 19.5 5t10.5 16q0 1 -2.5 3.5t-4.5 3.5h-3z" />
    <glyph glyph-name="cid76" unicode="k" horiz-adv-x="673" 
d="M600 67q7 -14 19.5 -17t24.5 -4.5t21 -6.5t9 -22q0 -1 0.5 -4.5t0 -8t-2 -8t-5.5 -3.5h-220l-134 267q-2 5 -5 6t-8 1h-7q-4 -3 -12 -11t-8 -9v-187q0 -12 9.5 -14t21 -3.5t21 -5.5t9.5 -20q0 -1 0.5 -4.5t0 -8t-2 -8t-5.5 -3.5h-180l-7 14h-7q-1 -1 -6.5 -4t-6.5 -3h-7
q-1 0 -5 2.5t-8 4.5l-8 4t-5 2q-2 1 -6.5 -0.5t-5.5 -1.5q0 -6 3.5 -8.5t3.5 -9.5h-49q-7 0 -7 9v11q0 8 0.5 14.5t6.5 12.5q1 0 11.5 0.5t22 3t21 8t9.5 15.5v406q2 -1 11 -3.5t12 -2.5q1 -1 2 -1h5q4 0 6 1q-14 15 -15 38.5t2 41.5q-2 7 -10.5 8t-12.5 1v171l-10 13
q-3 0 -11 0.5t-17 2t-18 4t-14 6.5l-1 17v12.5t7 10.5q30 6 56.5 11.5t52 10.5t51 9t54.5 9h3q8 0 15.5 -5.5t7.5 -14.5v-480h14l5 4t11.5 9.5l13 11t10.5 9.5q6 6 22.5 22t34.5 34l34 34t22 23q1 2 1 7q0 13 -11 12.5t-24 0t-24 8.5t-11 39h269q1 0 3.5 -5.5t3.5 -8.5v-6
q-1 -3 -1.5 -6.5t-2.5 -6.5q-2 -4 -3 -7l-93 -14q-6 0 -23.5 -12.5t-36 -29t-33 -33t-14.5 -25.5v-6zM183 719q0 10 -5 20t-11 19.5t-12 20t-8 21.5q-5 -12 -6 -19t-1 -18q0 -17 13 -30.5t30 -13.5zM253 747q5 0 5 6.5t-5 6.5t-5 -6.5t5 -6.5zM260 740q3 1 3 3.5t-3 3.5
q-3 0 -3 -4t3 -3zM247 560q5 0 5 6.5t-5 6.5t-5 -6.5t5 -6.5zM241 370q0 8 -10 9.5t-15 1.5q-11 0 -18 -9t-11 -21.5t-5.5 -25.5t-1.5 -22v-9.5t7 -6.5q5 4 14 15.5t18 24.5t15.5 25t6.5 18zM367 200q0 -11 9 -23t22 -21.5t26.5 -16t22.5 -6.5q1 0 6.5 4t11.5 9t10.5 10
t4.5 7q0 9 -7.5 15.5t-16 13.5t-16 16t-7.5 22t3.5 24t3.5 23q0 6 -3.5 18.5t-9 25.5t-12.5 23t-15 10q-10 0 -12 -7t-3 -16t-3.5 -18t-14.5 -13v-100zM127 287q-6 -2 -7.5 -9t-1.5 -11h9v20zM413 280q2 -1 7 -6.5t7 -6.5q-1 -3 -6 -8t-8 -6q-9 -2 -11.5 3t-2.5 10t2.5 9.5
t8.5 4.5h3zM187 267l-1 -14q0 -11 3 -15.5t14 -4.5q5 0 10 0.5t7 6.5zM533 153q3 1 3 3.5t-3 3.5t-3 -3t3 -4zM260 93q0 2 -6.5 10.5t-6.5 9.5t-0.5 3t-0.5 4q0 7 4 12t4 11q0 7 -5 9t-10 2q-9 0 -8 -4.5t-4 -16.5q-4 -9 -15.5 -15t-11.5 -15q0 -3 3.5 -8t8.5 -10t10.5 -8.5
t10.5 -3.5q3 0 7.5 2.5t9 6t7.5 6.5t3 5zM514 53q0 12 -1.5 25t-6 24t-14 18t-25.5 7h-7q18 -13 27.5 -33t12.5 -41h14zM567 40l-7 -7h7v7z" />
    <glyph glyph-name="cid77" unicode="l" horiz-adv-x="366" 
d="M273 53q0 -9 10.5 -11t23.5 -3.5t23.5 -6t10.5 -19.5q0 -5 -0.5 -13t-10.5 -7v25q-1 1 -4 1q-5 2 -6 1q-7 -3 -12.5 -8t-11 -10.5t-11.5 -9t-14 -3.5q0 10 -10 23t-22.5 24.5t-25 19.5t-17.5 8q0 -20 11 -36t20 -35h-200v40q0 3 8.5 5t19.5 3.5t20.5 2.5t11.5 3l1 4
t2 8.5t2 8.5t1 5q2 5 7 7q10 -4 11.5 -14l3 -20t6.5 -18t22 -8q8 0 9.5 5.5t1.5 11.5q0 7 -1 10q-9 8 -18 18.5t-15.5 22.5t-10.5 25t-2 27l-14 7v42q3 0 7 -2l27 -27h3q8 0 15 3.5t15 3.5q14 0 25.5 -10.5t22 -23t20.5 -23t22 -10.5h3q2 1 4.5 3.5t2.5 3.5v77
q-10 0 -11.5 -6t-1.5 -13t-2 -13t-12 -6q-15 0 -31.5 9t-31.5 22.5t-26.5 28.5t-16.5 27q-2 6 -5.5 7t-8.5 1q-8 0 -10.5 -4.5t-11.5 -4.5v73.5t0.5 83.5t2.5 85.5t6 78.5q17 -6 33.5 3t26.5 21h-63v143q0 14 -12 17.5t-26.5 5t-26.5 6t-12 21.5v3l7 14q51 15 105 27.5
t108 12.5q10 0 21.5 -2.5t11.5 -17.5v-754zM133 773h-28q0 -11 10 -13t18 -2v15zM258 703q0 17 -15 28.5t-31 11.5q0 -20 14 -30t32 -10zM227 587q-10 -2 -18 -6q-7 -3 -13.5 -6.5t-8.5 -7.5q3 -1 10 -1q8 0 19 3.5t11 13.5v4zM253 367q-6 -2 -6.5 -7.5t-0.5 -9.5t0.5 -9.5
t6.5 -7.5v34z" />
    <glyph glyph-name="cid78" unicode="m" horiz-adv-x="1025" 
d="M991 0v17.5t-3 9.5t-11 4t-24 2l20 1q18 0 23 -3t5 -21v-4t-0.5 -8t-2 -7.5t-5.5 -3.5h-273q-10 0 -12 8.5t-2 14.5q0 17 9.5 19t21 7.5t21 24.5t9.5 70v73.5t-1 69t-2 71.5t-4 82q0 10 -11 25t-25 29t-28 24.5t-21 10.5q0 -2 3.5 -7t8 -10.5t8.5 -10.5t5 -8
q-2 -5 -14.5 -11t-26.5 -11t-25 -8.5l-11 -3.5q-3 0 -3 1q-1 0 -3.5 3t-3.5 3q-2 2 -7 4.5t-6 2.5q-6 0 -6.5 -7t-0.5 -9q0 -97 7.5 -194.5t6.5 -196.5q7 -19 16.5 -20.5t18.5 -1.5t15 -5.5t6 -32.5h-90q7 0 7 7q0 22 -7.5 28t-25.5 6h-12.5t-15.5 -1.5t-13.5 -5t-5.5 -10.5
v-4q2 -2 9.5 -10t10.5 -10h-92q0 32 -27 32l-1 -5q1 -3 6.5 -13.5t6.5 -13.5h-49q0 8 1 20.5t8 19.5q3 0 9.5 1t14 2t14 2t9.5 2q2 1 6 3.5t4 3.5v344q4 0 12.5 1t10.5 8q-7 31 -26.5 49t-54.5 18q-6 0 -22.5 -2.5t-33.5 -7.5t-30 -12.5t-13 -17.5v-380q0 -7 8.5 -9
t18.5 -4.5t18.5 -8t8.5 -19.5q0 -6 -2.5 -12.5t-11.5 -6.5h-153q-1 4 -7 6q0 1 -3 1t-3 -1q-1 -1 -4 -4.5t-3 -5.5h-107q-3 0 -4.5 4.5t-2.5 9.5q-1 6 0 13q0 16 9.5 20t21 5t21 2t9.5 10v393q0 12 -11.5 14.5t-25.5 4t-25.5 5.5t-11.5 19q0 11 5 15.5t15 8.5q9 2 32 9
t48.5 14.5t48 14t31.5 8.5q16 4 20.5 5.5t16.5 1.5h10q-8 -2 -15 -7.5t-12 -12.5q6 -19 12.5 -39t27.5 -28q-2 13 -1 31t11 29v-33h17q38 26 75 46.5t85 20.5q49 0 82.5 -22t64.5 -58h13q36 32 77.5 56t92.5 24q77 0 122.5 -48t47.5 -126v-40.5t-1 -62.5t-1.5 -62.5
t-0.5 -40.5v69q-9 0 -13 2.5t-7 2.5t-6.5 -4t-10.5 -17q0 -20 4 -37.5t9.5 -35t9.5 -35.5t4 -37q0 -15 -7 -26t-7 -26q0 -5 1.5 -12t4 -14t6 -12t8.5 -5h58zM847 530q0 11 -7.5 16.5t-17.5 7.5t-21 1.5t-18 -0.5q0 -8 4 -17.5t10 -18t14 -14t16 -5.5q11 0 15.5 10.5
t4.5 19.5zM253 540q-5 0 -5 6.5t5 6.5t5 -6.5t-5 -6.5zM547 450q0 7 1 19t-0.5 23.5t-6 19.5t-14.5 8q-12 0 -19.5 -6t-12.5 -15.5t-7 -20.5t-2 -21q0 -13 2 -24t5 -26q3 -1 7 -1l7 1q5 2 20 8.5t20 11.5v23zM913 460q5 0 5 6.5t-5 6.5t-5 -6.5t5 -6.5zM927 427l-7 20v-10
q0 -7 0.5 -12.5t6.5 -11.5v14zM213 420q1 3 -3 3t-3 -3q0 -3 3 -3t3 3zM820 387q-1 1 -4.5 5.5t-8.5 9.5t-11 9.5t-11 4.5q0 -1 0.5 -5t1.5 -4q2 -4 9.5 -17t10.5 -17h6q6 4 7 7v7zM187 393h-7v-6h7v6zM594 373q0 -11 -4 -21t-4 -22l1 -17q0 -1 3 -9.5t3 -10.5
q0 -10 -4.5 -12t-11.5 -2q-10 0 -18 3.5t-16 8t-17 8t-21 3.5q0 1 12 9.5t27 20.5t29.5 25t19.5 23q1 -2 1 -7zM927 353q3 3 3 10.5t-3 9.5q-2 1 -2.5 -2t-0.5 -7.5t0.5 -8t2.5 -2.5zM835 280q0 5 -4 15t-10 20.5t-12.5 18t-11.5 7.5q-3 0 -4 -1q-2 -17 -7.5 -35.5
t-5.5 -35.5q0 -9 6.5 -22.5t17.5 -13.5q19 0 25 16.5t6 30.5zM100 313v-73h7q1 10 3 20q1 8 2 17.5t1 15.5q1 3 1 10.5v9.5h-14zM107 180q5 0 5 6.5t-5 6.5t-5 -6.5t5 -6.5zM547 180q-3 4 -7 7h-7l14 -14v7zM247 160q-2 5 -5.5 6t-8.5 1h-6v-7h20zM560 140q0 2 -2.5 7
t-4.5 6q-5 -9 -11.5 -17.5t-14.5 -15.5q3 -1 10 -1q8 0 15.5 5.5t7.5 15.5zM940 87q-3 -1 -3 3t3 3q3 0 3 -3t-3 -3zM447 67q5 0 5 6.5t-5 6.5t-5 -6.5t5 -6.5zM940 40v13l7 -13h-7z" />
    <glyph glyph-name="cid79" unicode="n" horiz-adv-x="697" 
d="M371 -7q0 8 1 20.5t8 19.5q3 0 8.5 0.5t12 1.5t12 2.5t7.5 2.5q3 1 8 6t5 7v367q0 13 -6.5 24.5t-14 22.5t-13.5 22.5t-6 23.5q0 8 3.5 13.5t3.5 13.5q0 4 -0.5 8t-6.5 5q2 7 8.5 10t14.5 4t16.5 0.5t14.5 -0.5q48 0 79.5 -20t50.5 -52t27 -72.5t9 -82.5q0 -10 0.5 -32
t0.5 -49.5t0.5 -58.5t0 -58.5t-0.5 -49.5t-1 -32q7 -18 18 -21t21 -5t17 -9t7 -32h-305zM24 -7q0 24 4 31t12 8t20 2t27 13q0 11 0.5 34t1 51.5t1.5 60.5t1.5 61t1 52t0.5 34l1 37q0 30 -6 46.5t-15 24.5t-19.5 10.5t-19.5 4.5t-15 6.5t-6 17.5q0 8 14 16.5t35.5 16.5
t47.5 15.5t50.5 13t44.5 9t29 3.5q12 0 19 -6t10 -15t3.5 -19.5t0.5 -20.5q2 -1 6 -1q10 0 17.5 5.5t14.5 12t14.5 12t17.5 5.5q2 0 3 -1q-5 -6 -6 -11.5t-1 -12.5q0 -12 4 -18.5t16 -17.5q-4 -1 -13.5 -5.5t-20 -10t-20 -10.5t-12.5 -7t-8.5 -7t-5.5 -6v-374
q0 -10 8.5 -12.5t18.5 -4t18.5 -5.5t8.5 -18v-11t-7 -9l-27 -1q-13 0 -24.5 4t-22.5 8.5t-22 8.5t-24 4v-24h-176zM220 547q11 -5 14 -15.5t3 -19.5q7 0 8.5 7t1.5 11q0 17 -17 17h-10zM473 547q-5 -3 -6 -7q-1 -1 -1 -3q0 -3 1 -4t6 -6.5t7 -6.5q5 2 6 5.5t1 7.5
q0 5 -2 9.5t-8 4.5h-4zM208 542q-4 0 -11.5 -1t-9.5 -8q1 -5 6 -6q1 -1 4 -1q6 0 8.5 5.5t2.5 10.5zM73 467q8 11 17 12.5t20 1.5q15 0 23.5 -8t22.5 -8v9.5t-0.5 16t-2.5 17t-6 12.5h-17q-28 0 -42.5 -8t-14.5 -39v-6zM587 433q-6 -4 -11 -9t-5 -13q8 0 13 5t9 11zM482 365
q0 17 -17 17q0 -17 17 -17zM167 327l-7 3.5t-7 2.5q-5 0 -6 -5t-1 -8q0 -5 2.5 -9.5t8.5 -4.5q3 0 3 1q1 0 3.5 5.5t3.5 7.5v7zM600 303q0 9 -11 13t-16 4q-26 0 -26 -27h13l40 7v3zM133 293h-13v-6h13v6zM487 220q0 11 -2.5 16t-14.5 5q-17 0 -17 -18q0 -9 5 -16.5t15 -7.5
t12 6t2 15zM247 213l-7 -6h13zM133 190q0 -9 6 -15.5t14 -7.5q1 2 1 6q0 9 -6.5 13.5t-14.5 6.5v-3zM594 163q0 9 -3 17.5t-14 8.5q0 -2 0.5 -7t1 -11t1 -11t0.5 -7q0 -1 2.5 -3.5t4.5 -2.5q6 1 6.5 6.5t0.5 9.5zM180 80q0 9 -9 12t-15 3q-13 0 -14.5 -10t-1.5 -22
q0 -10 13 -10q8 0 17.5 10t9.5 17zM527 47q3 0 3 3t-3 3q-3 1 -3 -3t3 -3z" />
    <glyph glyph-name="cid80" unicode="o" horiz-adv-x="637" 
d="M380 560q40 0 80 -23t71 -58.5t50.5 -78t19.5 -80.5l-1 -20q-4 9 -8 11.5t-11 2.5q-2 0 -4.5 -0.5t-3.5 -0.5q-2 0 -7.5 -2t-12 -4t-12 -4t-8.5 -3q1 -2 11 -5t22.5 -5t24.5 -3.5t17 -1.5q0 -67 -21.5 -124t-60.5 -99t-94 -65.5t-122 -23.5q-54 0 -105 19t-90.5 53.5
t-64 82.5t-24.5 105l1 14q1 -2 4.5 -8t8 -12t10 -10.5t10.5 -3.5q14 3 23 14t14.5 25.5t7.5 30t2 27.5q0 6 -1.5 11.5t-8.5 5.5q-10 0 -20 -8t-19 -19.5t-17 -22.5t-14 -17q-1 3 -1 15v15q0 41 17 88t46.5 87.5t70 67.5t87.5 27h133zM307 553q1 3 -7 3t-7 -3q2 -3 7 -3t7 3z
M480 160q10 -16 20 -18.5t25 -2.5q21 0 32.5 6.5t11.5 29.5q-14 0 -23.5 -11t-15.5 -11q-10 0 -23 7.5t-26 17.5t-24 20t-17 15h-20q0 8 -0.5 28t-1.5 42.5t-2.5 42t-2.5 27.5q-1 22 -6 50t-16.5 52.5t-30.5 41.5t-47 17q-29 0 -48.5 -19t-31 -46t-16 -57t-4.5 -52v-193
q0 3 -2.5 13t-3.5 13t-3.5 8t-3.5 6q-4 2 -10.5 4.5t-13 4.5t-11 3.5t-5.5 0.5l-7 -7l-1 -19q0 -9 1.5 -20t6 -20t12 -15t20.5 -6q15 0 20 5.5t8 21.5l20 -60q4 -11 15.5 -22.5t11.5 -21.5v-3q-2 -1 -7.5 -2t-11.5 -3t-10.5 -4.5t-4.5 -6.5q0 -23 14.5 -27t33.5 -4h15.5
t10.5 11v3l-14 13v7q60 1 94 47l6 -7q5 7 13 18.5t8 21.5h-13l-1 7q2 6 4 15t4 17q3 10 5 21h67zM247 507v-7l6 7h-6zM201 383q0 5 -5.5 20t-13.5 30.5t-16.5 28t-15.5 12.5q-11 0 -14 -14.5t-3 -23.5q0 -5 8 -13t18.5 -17.5t20.5 -19.5t13 -19q7 1 7.5 6.5t0.5 9.5z
M478 473q0 -8 9 -14t16 -6q8 0 10 7.5t2 12.5h-37zM480 373h-13l13 -13v13zM161 36q0 23 -18 34.5t-38 11.5q0 -6 7 -14t16 -15t18.5 -12t14.5 -5zM507 63q0 6 -1.5 12t-9.5 6t-9 -11.5t-1 -16.5l1 -13q10 4 15 8.5t5 14.5zM393 40q-6 -12 -17.5 -22.5t-11.5 -25.5h15t19 1
t18 4t11 10z" />
    <glyph glyph-name="cid81" unicode="p" horiz-adv-x="689" 
d="M400 563q4 1 13.5 2t20 1.5t20 0.5h13.5q50 -2 86.5 -32t60 -73t35 -92.5t11.5 -89.5q0 -56 -16.5 -111t-48.5 -98.5t-79.5 -70.5t-109.5 -27q-34 0 -65 13t-61 27l-7 -6v-214q0 -10 11.5 -11.5t25.5 -2.5t25.5 -5.5t11.5 -20.5v-11t-7 -9h-145q0 19 -6 27t-21 8
q0 -8 -1 -11t-1 -5.5t1.5 -6t5.5 -12.5h-140q-6 0 -6.5 7t-0.5 10q0 12 5.5 19t14.5 10.5t19.5 5t21.5 2.5l10 20v373h52q0 20 9 34t9 29v4q-16 -10 -34 -13.5t-36 -3.5v210q0 13 -12 16t-27 4t-27 4.5t-12 18.5q0 13 11 20.5t26 12t30 7t24 4.5v-20l5.5 -2t13.5 -4.5
t16.5 -4.5t14.5 -3h10q14 0 28.5 5.5t28.5 8.5v13l-34 27v6q0 3 5.5 4.5t12.5 2t13.5 0.5h9.5q10 0 15 -6.5t8.5 -14t7.5 -13.5t12 -6h3q3 1 10.5 4.5t16 8t16 8.5t10.5 6v-9.5t1.5 -13t4 -12t8.5 -5.5q1 0 9.5 3t10.5 3h2q1 0 2 0.5t3 0.5q6 0 11 -4t12 -4q3 0 3 1
q1 0 3.5 2.5l3.5 3.5q3 6 11 19t9 15q1 1 -1 10l-3 6h-23zM380 560q-2 -3 -7 -3t-6 3q-2 3 6.5 3t6.5 -3zM270 87q0 -9 10 -13t22.5 -6t23.5 -2h14q43 0 68.5 20t38.5 51t16.5 68t3.5 72q0 31 -3 66.5t-15 66t-35.5 51t-63.5 20.5q-4 0 -17 -1t-27 -4t-25 -8.5t-11 -14.5
v-226q-2 1 -8 3.5t-9 2.5q-4 0 -15.5 -10.5t-24 -23.5t-22.5 -25t-11 -14q1 -10 2 -27t5 -33.5t13 -28.5t27 -12q1 0 6.5 7t11.5 15l16 22q0 9 -4.5 15t-10.5 12t-10.5 13t-4.5 18q0 19 7 31t32 21v-126zM187 393q-4 6 -7 7h-7l7 -13zM640 273h-21q0 -8 4 -15t4 -16
q0 -8 -6.5 -13.5t-14 -11.5t-13.5 -13t-6 -17q0 -1 2.5 -3.5l3.5 -3.5h7q1 1 5 4t9.5 7.5t10.5 8.5t8 7q2 0 5 3q1 1 2 3v60zM540 187q-1 4 -7 6q0 1 -3 1q-2 0 -3 -1q1 -5 6 -6q1 -1 4 -1q2 0 3 1zM233 -107q-1 3 -3.5 13.5t-2.5 13.5q-14 -11 -17.5 -35.5t-3.5 -41.5
q5 0 12.5 3.5t14.5 9t11 12t3 12.5zM173 -127h-8q0 -8 8 -13v13z" />
    <glyph glyph-name="cid82" unicode="q" horiz-adv-x="656" 
d="M450 433q14 0 16 12.5t2 21.5q0 8 -1 19t-14 14q6 8 19.5 18.5t30 20t33.5 16t30 6.5q4 0 11.5 -0.5t9.5 -7.5q-1 -89 -0.5 -187t1.5 -196.5t2.5 -194.5t2.5 -182q5 -9 15 -11.5l20 -5t17.5 -7t7.5 -16.5q0 -4 -2.5 -12t-3.5 -8h-307q-5 0 -6 8.5t-1 12.5q0 17 12.5 20
t27.5 4.5t27.5 7t12.5 27.5v187q0 2 -2.5 7t-3.5 6t-3 1q-18 0 -36 -6.5t-36 -14t-37 -14t-38 -6.5q-17 0 -36.5 1.5t-33.5 12.5q9 2 6.5 9t-2.5 12q-8 0 -10 -2.5t-2.5 -5t-1.5 -5t-7 -2.5q-27 0 -48 14.5t-37 38.5t-27 53.5t-18.5 59t-10.5 56.5t-3 45q0 35 4 68t17 65
q5 13 14.5 19.5t17.5 13t13 17t1 30.5q40 45 85.5 69.5t105.5 24.5q17 0 41 -5t47 -15t42 -24.5t26 -32.5h-40l-7 -17q-14 6 -26 7t-27 1q-41 0 -66 -21t-38.5 -52.5t-18 -68.5t-4.5 -69q0 -35 5 -71.5t19 -66t39.5 -48t66.5 -18.5l37 1q21 6 27.5 22.5t5.5 37.5
q12 -10 23 -21t19 -23t11.5 -26t0.5 -30q4 1 6 6l20 40q1 1 1 4t-1 3q-1 2 -10 10t-10 10q-1 1 -1 2v5q0 4 1 6q11 11 23.5 25t25.5 29.5t24.5 30.5t20.5 29v6q0 5 -2 9.5t-8 4.5q-3 0 -12.5 -9.5t-23.5 -21.5t-31.5 -21.5t-36.5 -9.5v48q0 6 -5.5 9.5t-12.5 6t-13.5 3.5
t-8.5 1l-6 214h10q14 0 19 -10.5t11 -23.5h3zM261 537q0 18 -17 18q0 -21 16 -28q1 3 1 10zM233 443q14 0 27.5 13.5t13.5 26.5q0 3 -1 4q-2 4 -6 6l-34 -33v-17zM67 340q0 3 -4 3t-3 -3t3.5 -3t3.5 3zM93 253q2 -3 15 -10t29 -14t29 -12.5t15 -5.5q0 3 -1 11t-3 16.5
t-4.5 15t-5.5 6.5h-67zM60 240v-8q8 0 13 8h-13zM140 67l13 -1q10 0 22 4t12 16q0 11 -4 18.5t-4 18.5q0 10 4.5 17.5t9.5 13.5t9.5 12t4.5 14q0 9 -6.5 13t-13.5 7q1 -17 -7 -29t-18.5 -22t-19.5 -19.5t-9 -21.5v-8zM307 33q-3 4 -7 7q-2 2 -8 6.5t-12.5 9.5t-12 10t-7.5 7
v-6q5 -8 15 -21t12 -13h20zM573 55q-9 0 -13.5 -7t-6 -16.5t-1 -19.5t0.5 -16t0.5 -14.5t9.5 -8.5h4l3.5 3.5t2.5 3.5v75zM353 47v-7l7 7h-7zM454 -50q0 7 -3 16.5t-11 13.5q-2 -13 -8 -25.5t-6 -25.5q11 0 19.5 4t8.5 17zM547 -53l-7 -7h7v7zM520 -168q7 0 20.5 4t13.5 14
q0 2 -1 3q-3 2 -13 7t-13 7h-7v-35zM433 -193h-6v-7h6v7z" />
    <glyph glyph-name="cid83" unicode="r" horiz-adv-x="520" 
d="M180 433q1 7 -7 20.5t-19.5 27t-24 23.5t-19.5 10q-4 0 -9.5 -0.5t-7.5 -6.5q15 0 15 -14q0 -3 -6 -8.5t-13.5 -11t-15.5 -10t-11 -4.5q-15 0 -32 3t-17 21q0 10 7 16.5t17 10.5t20 6t16 4q8 2 28 8t42.5 12.5t42 12t27.5 7.5l17 1q6 0 18 -1.5t12 -12.5v-46q0 6 -1 15.5
t-3 17.5t-7 14t-12 6q-3 0 -4 -1q-5 -2 -6 -6q-1 -1 -1 -4q0 -2 1 -3q0 -1 3 -6.5t3 -6.5q1 -2 1 -9v-14.5v-14.5t-1 -9q7 -2 8 -9t1 -12l-9 1q-1 0 -6.5 3t-6.5 4h-7q-1 -15 -4.5 -24.5t-18.5 -9.5h-10zM280 480q17 19 32.5 34t32 25.5t36 16t45.5 5.5q16 0 33 -4t31 -13
t22.5 -23t8.5 -34l-1 -14q-3 11 -9 25.5t-18 21.5q-3 -11 -11 -16t-18 -6.5t-20 -0.5t-17 3q-7 -2 -7.5 -7t-0.5 -10q0 -11 10 -16.5t23.5 -10t27 -10.5t20.5 -19q1 -1 1 -4q0 -9 -6.5 -15t-15.5 -9.5t-18 -4.5t-15 -1q-16 0 -29.5 8.5t-25.5 18.5t-24 18.5t-24 8.5
q-9 0 -20 -12t-21.5 -29t-18.5 -35.5t-11 -31.5q1 6 1.5 12t0.5 11q-9 0 -21.5 -20t-28.5 -44.5t-36 -44.5t-43 -20q-11 0 -20.5 1t-17.5 13q-8 -2 -8 -11.5v-12.5q0 -15 2 -29t7.5 -24.5t16.5 -17t29 -6.5q8 0 12.5 4.5t9 9.5t9.5 9.5t14 4.5q14 0 24 -10.5t20 -10.5h4
q5 3 6 7q1 1 1 3q0 13 -8.5 19t-19 11.5t-19 13.5t-8.5 24q0 14 7.5 28.5t23.5 14.5q8 0 13.5 -4t13.5 -4q2 0 3 1q1 14 4 29.5t6 31.5v-252q-12 0 -18 -3.5t-6 -15.5q0 -5 0.5 -10t6.5 -7q5 3 8.5 9t5.5 11q15 -21 38 -23.5t48 -3.5q2 0 4.5 -2.5t2.5 -3.5q1 -4 2 -17
t1 -17h-336q-5 0 -6 8.5t-1 12.5q0 14 10.5 17.5t23 4.5t23 3.5t10.5 13.5v404q7 0 16 -14t18 -31t17.5 -32.5t14.5 -19.5q5 5 23 13.5t37.5 18t34.5 19t15 16.5v60l10 -7h7zM327 500h-7v-7h7v7zM273 413q0 -17 14 -26q1 1 3.5 6t2.5 7q0 8 -6.5 13.5t-13.5 6.5v-7zM272 339
q0 -2 -1 -3zM271 336q0 -6 -1 -8zM107 300l-7 -7h7v7z" />
    <glyph glyph-name="cid84" unicode="s" horiz-adv-x="511" 
d="M180 439q0 -32 22.5 -50t55.5 -31t72.5 -25t72.5 -32t55.5 -52.5t22.5 -85.5q0 -7 -1.5 -26t-5.5 -39t-12.5 -35.5t-21.5 -15.5h-73q-11 0 -12.5 -8.5t-0.5 -18.5t1 -18.5t-8 -8.5q-2 0 -10.5 3.5t-9.5 3.5l-14 -1v-19q0 -1 -12.5 -3.5t-20.5 -3.5h-46q-13 0 -46 3
t-67.5 10t-61 18.5t-26.5 28.5v7q9 -9 14.5 -11.5t15.5 -2.5q9 0 17 3t13 11q-13 5 -20.5 9.5t-12 10.5t-7.5 15.5t-6 24.5l-14 -20v17q0 6 0.5 17l1 22t2 20t3.5 11l7 6h60q2 0 4 -3t4 -7q3 -4 5 -10t5.5 -21t8 -32t8 -32t5.5 -21q3 -7 14 -11t24 -6t24 -2.5t14 -0.5
q19 0 37.5 3.5t33.5 12.5t24 23t9 35q0 24 -13.5 39.5t-30 25t-30 15.5t-13.5 12q0 27 10 53.5t10 54.5q0 17 -13.5 22t-26.5 5l-20 -1q-4 -7 -7.5 -20.5t-8 -27t-10.5 -23.5t-15 -10q-5 0 -6 1t-1 3.5t-0.5 6.5t-4.5 10h-7l-27 -27l-12 6t-8 10q0 9 3.5 16t3.5 15
q0 9 -6.5 14t-14 9.5t-14 11t-6.5 17.5q0 19 14 28.5t30.5 16t30.5 13t14 19.5q0 6 -3 13.5t-7.5 14.5t-11 12t-12.5 5q-14 0 -20.5 -7.5t-10 -18.5t-5 -24.5t-5 -24.5t-11 -18.5t-22.5 -7.5h-9q0 51 18 90t49.5 65t74 39t90.5 13q18 0 49 -1.5t61 -8.5t52.5 -21.5
t22.5 -39.5l-1 -16l-14 -7v-40l-40 -40v-15q-4 0 -11 1.5t-9 7.5q-1 5 -5.5 18.5t-10 28t-10.5 28t-7 18.5q-3 7 -10 17t-17 10h-90q0 15 -2 24.5t-18 9.5q-7 0 -10 -1q0 -4 -2.5 -17t-3.5 -16q-1 -1 -4 -7t-3 -7t3.5 -6.5t3.5 -6.5q0 -2 -3.5 -13.5t-3.5 -13.5v-14z
M447 447q-3 -1 -3 3t3 3q3 0 3 -3t-3 -3zM40 327q-3 -1 -3 3t3 3q3 0 3 -3t-3 -3zM47 307q-5 0 -5 6.5t5 6.5t5 -6.5t-5 -6.5zM347 260q4 1 6 7q-9 14 -28 14q0 -7 5 -12.5t10 -8.5h7zM60 113q3 2 16 7.5t17 12.5q-1 7 -8.5 7.5t-11.5 0.5q-5 0 -12.5 -1t-7.5 -10v-3z
M133 20q5 0 5 6.5t-5 6.5t-5 -6.5t5 -6.5zM189 -10q0 22 -16 27t-35 5q0 -8 5.5 -14t13.5 -10t16.5 -6t15.5 -2z" />
    <glyph glyph-name="cid85" unicode="t" horiz-adv-x="404" 
d="M257 113q0 -17 8.5 -29t22 -19t29.5 -8.5t30 3.5q-2 -2 -4.5 -7.5t-5.5 -12t-6 -12.5l-4 -8q-1 -1 -1 -3q0 -3 1 -4q1 -5 6 -6q1 -1 3 -1q15 0 24 8t14.5 19t9.5 24t9 23q9 -4 11.5 -8.5t2.5 -11.5q0 -24 -19.5 -40.5t-46.5 -27t-54.5 -15t-43.5 -4.5q-10 0 -24.5 0.5
t-29.5 3t-28.5 8t-20.5 15.5h3q8 0 15.5 -3.5t15.5 -3.5q5 0 12 16t13 36.5t10.5 39.5t4.5 25q0 7 -8 8.5t-13 1.5q-13 0 -24 -14t-19.5 -32.5t-13.5 -38t-5 -30.5q-10 0 -17.5 11.5t-13.5 26.5t-10 29.5t-7 20.5v387l-16 17h-60q-1 0 -3.5 6.5t-3.5 9.5v4q0 15 10 21t24 8
t29 3t24 4q6 2 12 14.5t11 29.5t9.5 36.5t9 35.5t9 27t9.5 11h113v-154q-2 5 -6 13t-11 8q-5 0 -14 -5t-9 -12q0 -9 7.5 -17t17.5 -14t20.5 -9.5t17.5 -3.5q8 0 13 2.5t5 11.5q0 7 -3 11t-11 9h53q-2 -20 10 -31t29 -12q-2 -2 -3.5 -4.5t-2.5 -2.5h-100q-6 0 -11 -9.5
t-8.5 -21t-5.5 -22.5t-2 -14t1 -3q1 -1 4.5 -4t5.5 -3v-307zM146 667q-10 0 -11.5 -11t-1.5 -18q10 0 19 1.5t9 13.5q0 14 -15 14zM170 500q7 0 15.5 1.5t8.5 11.5q0 46 -18.5 60t-64.5 14q0 -5 7 -17t15.5 -25.5t16.5 -26t10 -18.5h10zM379 504q0 1 0.5 1.5t0.5 1.5v-1
q0 -1 1 -2h-2zM153 333h-13q5 -8 13 -8v8zM373 80q1 1 4 1q2 0 3 -1l-20 -13zM180 20h-13v13h13v-13z" />
    <glyph glyph-name="cid86" unicode="u" horiz-adv-x="691" 
d="M667 10q0 -3 0.5 -12.5t-7.5 -10.5q-26 -3 -46 -4.5t-38.5 -2t-37 -0.5h-41.5h-57q-9 2 -10 11.5t-0.5 20.5t-1 19.5t-11.5 8.5h-4q-13 -9 -28.5 -19.5t-32 -20t-34 -15.5t-34.5 -6q0 21 8.5 26.5t19 7t19.5 4t9 16.5v1q-18 0 -33.5 -1.5t-27 -7.5t-18 -18.5t-6.5 -34.5
q-39 0 -65.5 10t-46 28t-33.5 44t-27 59v354q-2 2 -4 3l-6 3q-1 1 -7 3t-12.5 4t-12.5 4t-8 3q-2 0 -4 1l-4 2q-3 1 -5 3v34l13 6q1 1 23.5 4t53.5 7t63.5 8.5t53.5 7.5h11q6 0 14 -1.5t8 -11.5v-200l-7 -40q-23 3 -35 2t-12 -22q0 -6 1 -13.5t10 -7.5q2 0 3 1q1 0 6.5 3
t6.5 3l2 1q0 -6 3 -17.5t15 -9.5q1 -19 2 -48.5t7.5 -57.5t22 -48t45.5 -20q11 0 24 2.5t26 7.5t23.5 12.5t16.5 17.5q3 33 4.5 62t2 57t0.5 56.5v61.5v117q-6 8 -16.5 10.5t-20 5t-17 7t-7.5 16.5v11t7 10l200 33h7q5 0 16 -3.5t11 -9.5v-67q-6 3 -12 8.5t-12.5 11.5
t-13 10t-12.5 4q-8 0 -9.5 -6.5t-1.5 -11.5q0 -8 4.5 -22t12 -28t17 -25.5t20.5 -13.5q6 -88 7 -177t0 -177l6 -13q8 -1 26 -3.5t28 -9.5v-17zM440 433q18 -14 28 -17t27 -3q3 0 8 -0.5t10.5 0.5t9.5 3t4 7q0 4 -11 8t-24.5 7.5t-26 6t-15.5 2.5h-3q-6 -4 -7 -7v-7zM572 151
q10 2 15 2l3.5 3.5t2.5 3.5q1 0 1 3q0 24 -10 38.5t-23.5 25.5t-28.5 21t-25 25q-1 -3 -1 -10q0 -11 9 -16.5t19.5 -10t19.5 -9.5t9 -14v-62h9zM118 268q0 -16 11 -23t26 -7q0 17 -11 23.5t-26 6.5zM200 147q-1 4 -7 6q0 1 -3 1q-2 0 -3 -1v-6h13zM127 77q0 7 -9.5 9
t-14.5 2q0 -8 4 -14.5t13 -6.5q1 0 3.5 2.5l3.5 3.5v4zM220 75q-9 0 -12 -7t-3 -15h15v22zM233 20l-6 7l-7 -7h13zM523 -7q0 6 -6 9.5t-10 4.5v-14h16z" />
    <glyph glyph-name="cid87" unicode="v" horiz-adv-x="593" 
d="M440 293q-9 -31 -21 -77t-27.5 -92t-35 -84t-43.5 -53l-26 -1h-12t-14 1t-13 4t-8 9l-167 420v7q0 9 3.5 12.5t3.5 15.5q0 20 -1.5 35t-5.5 37h-3q-5 0 -9 -5t-7 -11t-5 -11.5t-2 -6.5q-10 1 -22 2t-22 4.5t-17 10.5t-7 20q0 3 0.5 10t7.5 7h306q7 0 7.5 -9t0.5 -11
q0 -15 -9.5 -19.5t-21 -6t-21 -4.5t-9.5 -13v-4q0 -2 2 -8.5t4.5 -14.5t4.5 -15t2 -9l1 -6q0 -5 -1 -7q-2 2 -9 5.5t-14.5 7.5t-14 8t-8.5 6h-7q-14 0 -14 -17q0 -22 6 -41.5t18 -34.5t29 -23.5t39 -8.5q0 14 -7 20.5t-16 11.5t-16 10t-7 16q0 12 9 19t19 14
q4 -11 14.5 -39.5t22.5 -60t22 -60t14 -40.5l6 -12t11 -8h3q2 6 7 19t10 28t10 28t7 19q0 1 2.5 6.5t3.5 6.5q5 -8 9 -11t11 -3q9 0 14.5 3.5t12.5 10.5v-7zM587 547q2 -3 3 -6q2 -6 3 -8q1 0 1 -3q0 -16 -11 -22.5t-25.5 -11.5t-29 -12.5t-21.5 -23.5q-2 -4 -9 -22
t-14.5 -38t-14.5 -38t-9 -22q-1 -3 -3.5 -8t-3.5 -5q0 -1 -3 -1t-3 1l-27 26q-3 3 -7 3v4l34 107v26q-8 1 -19 2.5t-22 5t-18.5 10.5t-7.5 19v3q1 3 3.5 8.5t3.5 5.5h200zM447 507q0 -1 7.5 -3.5t12.5 -3.5l28 -2q0 23 -14 33.5t-34 10.5v-35zM174 333q0 5 -1 7
q-5 -4 -10 -9t-5 -13q16 0 16 15zM293 33q7 0 14 20t13 44.5t10 46.5t4 26t-0.5 10.5t-2.5 12.5t-5.5 10t-9.5 4h-3l-20 -47v-100q-8 -11 -8 -27h8z" />
    <glyph glyph-name="cid88" unicode="w" horiz-adv-x="893" 
d="M887 547q6 0 6.5 -7.5t0.5 -10.5q0 -16 -10 -20t-22.5 -4.5t-25 -3t-16.5 -14.5l-167 -474q-5 -16 -17 -21.5t-29 -5.5q-41 0 -54 34l-113 313q0 1 -2.5 3.5t-4.5 3.5q0 1 -3 1t-3 -1q-1 -1 -3.5 -6l-3.5 -7l-113 -314l-7 -13q-7 15 -23.5 17.5t-30.5 2.5q-6 0 -13 -0.5
t-7 -9.5q0 -3 1 -3q0 -2 2.5 -7l3.5 -7h-3q-11 0 -20 15t-16 35t-10.5 40t-3.5 31q0 6 3.5 9l7 6t7 7.5t3.5 13.5q0 14 -6 22t-22 8q-6 0 -10 -1t-10 -6q-1 3 -3.5 12t-5.5 18.5t-6 18t-5 11.5q-3 10 -10.5 30.5t-16.5 46t-19.5 54t-19.5 54t-16.5 45.5t-10.5 30t-13 11
t-20.5 2t-18.5 5t-8 19v3q2 6 5 10q2 4 4 7t4 3h287q9 0 11.5 -6.5t2.5 -12.5q0 -18 -10.5 -22.5t-23.5 -6t-23.5 -4t-10.5 -17.5q0 -12 6 -38t15 -57.5t20 -65t21 -61t18 -45.5t11 -18q2 0 3 1q3 2 10.5 9.5t9.5 10.5q1 -2 6.5 -7t6.5 -6t4 -1q2 0 3 1q4 1 7 6v7
q-1 2 -6 9.5t-8 10.5q0 1 -3 3.5t-3 3.5q-1 0 -1 3q0 2 1 3q0 4 2.5 14t3.5 13q4 11 13 37.5t18.5 56t17.5 56t11 37.5q1 1 1.5 6t0.5 7q0 17 -10 20t-22 5.5t-22 9.5t-10 32h272q0 -21 -4.5 -30.5t-11.5 -12.5t-15.5 -2.5t-15.5 0.5t-11.5 -2.5t-4.5 -12.5v-7l7 -27
q3 -13 14.5 -46.5t24 -70.5t24.5 -70t17 -46v-13h-20q2 -4 7 -17t6 -17l1 -7q0 -20 -21 -26l-73 -20q-5 -1 -6 -8.5t-1 -11.5v-7q15 21 40 21q11 0 20 -4t20 -4q18 0 29 17.5t11 33.5q0 11 -4 21.5t-4 21.5h21v-40q14 7 19.5 25t7.5 28h-20v14q4 12 13.5 44.5t20 68.5
t20 68.5t13.5 44.5l3.5 14t2.5 13q1 1 1 4q0 2 -1 3q-2 3 -7 9.5t-6 6.5h-53q-10 0 -12 10.5t-2 16.5q0 2 0.5 9.5t6.5 7.5h207zM187 540q-2 -1 -10.5 -7t-9.5 -6q-2 0 -10.5 6t-9.5 7q-2 1 -7.5 2t-6.5 1q0 -8 -0.5 -23t2 -30t8 -26t17.5 -11q4 0 10 12.5t11.5 28t9.5 30
t4 18.5zM473 533q0 1 -10 3.5t-16 3.5h-4q-16 0 -20.5 -11.5t-4.5 -24.5q5 0 14.5 2t18.5 5.5t15.5 7.5t6.5 8v6zM772 540q0 -9 5.5 -11.5t12.5 -2.5t12.5 2.5t5.5 11.5h-36zM420 380q-1 0 -6 -10.5t-7 -16.5q-1 0 -1.5 -3.5t-0.5 -4.5q13 0 17.5 12.5t4.5 22.5h-7zM763 355
q-16 0 -31 -9t-15 -28q16 0 31 9t15 28zM548 325q0 15 -15 19t-27 4q-8 0 -17 -3t-9 -15q0 -6 6 -10.5t14.5 -7.5t16.5 -4.5t13 -1.5q11 0 14.5 4t3.5 15zM194 303q0 7 -1 10q-10 -6 -15 -11t-5 -15q0 -4 1 -8t6 -6q8 5 11 13.5t3 16.5zM580 220l-7 -7h7v7zM267 189
q7 0 13.5 4.5t6.5 13.5q0 5 -5.5 6t-8.5 1q-4 0 -6 -1v-24z" />
    <glyph glyph-name="cid89" unicode="x" horiz-adv-x="617" 
d="M293 -7q-4 0 -5.5 3.5t-2 8t0 8t0.5 4.5l1 16q1 0 8 1t15.5 2.5t17 4t12.5 6.5v3q0 25 -16 46.5t-34.5 42t-34.5 42t-16 46.5q0 14 7.5 25.5t7.5 24.5q0 16 -13.5 41t-32.5 49t-39.5 41t-34.5 17q0 -9 3 -17t3 -18v-10q-4 3 -7 7l-12 18t-21.5 32t-21 31.5t-11.5 18.5
q-7 9 -17.5 11.5t-20 4t-16.5 6t-7 18.5v11t7 9h307q6 0 6.5 -7t0.5 -10q0 -14 -8 -18.5t-17 -6.5t-16 -5t-6 -13q0 -16 7.5 -34.5t19.5 -36t26 -32.5t27 -24q10 8 24 23.5t26.5 34t21.5 37t9 32.5q0 10 -8.5 12t-18.5 3.5t-18.5 5.5t-8.5 19q0 4 2.5 12t3.5 8h194q7 0 7 -9
v-11v-11.5t-7 -8.5l-7 13q-15 -4 -25.5 -2t-19 6t-17.5 8t-22 4q0 -15 4 -18t10 -3.5t12.5 -2t10.5 -12.5l-13 -13q-2 -3 -10 -14t-18 -23.5t-19 -24.5t-13 -18q-7 -11 -18.5 -26.5t-22 -30.5t-18.5 -25.5t-8 -11.5v-13q4 -6 12.5 -20t18 -29.5t18 -30t11.5 -20.5l7 -13
q-13 -4 -17.5 -9.5t-9 -9.5t-12.5 -5t-28 4q-3 -20 -11.5 -38t-8.5 -38q0 -11 0.5 -19.5t6.5 -18.5q3 4 13 14t14 13q12 11 17 22t9 22.5t11 23.5t23 25q28 -20 41.5 -40.5t24 -39.5t24.5 -34.5t43 -25.5q5 -1 7 -7.5t2.5 -13.5t0 -13l-0.5 -6h-316zM180 540v-14q6 0 14.5 3
t8.5 11h-23zM29 512q0 9 -3.5 16t-14.5 7q0 -10 3.5 -16.5t14.5 -6.5zM153 367q5 0 5 -7t-5 -7t-5 7h-1q-5 0 -5 6.5t5 6.5t5 -6h1zM207 273q-17 12 -28.5 33t-18.5 41v6l7.5 -0.5t16.5 -2.5t16 -6t7 -11v-60zM367 293q0 14 -3.5 33t-16.5 27q-1 -2 -1 -8v-8q0 -14 4 -28.5
t17 -21.5v6zM227 240q-2 -3 -10 -10.5t-10 -9.5q8 8 7.5 23.5t-1.5 23.5q14 -9 14 -24v-3zM-3 -7q0 4 1 17t2 17q0 1 2.5 3.5t4.5 2.5q31 0 51.5 11t34.5 27.5t24 35.5t20.5 35.5t24 27.5t34.5 11q8 0 16 -0.5t15 -7.5q-14 -31 -33.5 -59.5t-33.5 -60.5q6 -9 15 -11.5
t18 -4.5t15 -6.5t6 -17.5v-11t-7 -9h-210zM140 60h-7l7 -13v13zM380 0q3 1 3 3.5t-3 3.5q-3 0 -3 -4t3 -3z" />
    <glyph glyph-name="cid90" unicode="y" horiz-adv-x="598" 
d="M593 550q3 0 5 -3.5t2.5 -7.5t0.5 -8v-4q0 -17 -9.5 -22t-22 -7.5t-24.5 -6t-18 -18.5q-8 -19 -23 -59t-34 -90.5t-40 -106.5t-40 -106.5t-34 -91t-23 -59.5q-14 -36 -33.5 -78.5t-46 -78.5t-62.5 -60t-83 -24q-17 0 -38.5 4.5t-40 14t-31 25t-12.5 37.5q0 18 9 32
t22.5 23t30.5 14t32 5q32 0 59 -20t48 -41h6q13 0 21.5 10t16 23.5t14 27t15.5 19.5l13 -13h4q9 0 19 17.5t18.5 40t14 43.5t5.5 29q0 7 -1 10q-20 -4 -28.5 -20.5t-12.5 -34.5t-6.5 -32.5t-10.5 -14.5q0 28 -12.5 56.5t-22.5 52.5q-7 16 -21 49t-31.5 75.5t-37 88.5
t-37.5 88.5t-32 75.5t-21 49q-6 19 -19.5 27.5t-27 14t-23.5 11.5t-10 21q0 4 2.5 12t4.5 8h306q7 0 7.5 -9t0.5 -11q0 -15 -9.5 -19.5t-21 -6t-21 -4.5t-9.5 -13q0 -37 11 -75.5t27.5 -77t35 -75t33.5 -69.5q1 -3 3.5 -8t2.5 -6h4q9 0 10 8.5t3 19t10 19t32 8.5
q0 9 -0.5 12t-3 4.5t-6 2.5t-9.5 6v7l34 100q19 -6 36 3t17 31q0 7 -4 10.5t-9.5 6.5t-9.5 6.5t-4 11.5q0 13 3.5 25.5t3.5 26.5q0 3 -0.5 6.5t-6.5 5.5l-66 14q-5 1 -6.5 8.5t-1.5 11.5q0 6 2.5 13t11.5 7h87l-7 -14h7q8 0 12 5.5t8 11.5h93zM120 540h-8q0 -8 8 -13v13z
M534 520q0 5 -2.5 9.5t-8.5 4.5q-3 0 -3 -1q-2 -2 -4.5 -9.5t-2.5 -10.5q0 -1 2.5 -3.5t4.5 -2.5q9 0 11.5 3.5t2.5 9.5zM234 450q0 8 -3 16.5t-11 13.5q-5 -3 -14 -15t-18 -26.5t-15.5 -29t-6.5 -21.5q0 -6 0.5 -13.5t3 -14.5t6.5 -13t11 -7q4 -1 11 2.5t13.5 8.5t11 11
t4.5 11q0 9 -4 15.5t-4 15.5q0 13 7.5 22.5t7.5 23.5zM250 253q12 0 16.5 13t4.5 21q-19 0 -32.5 4.5t-24.5 10.5t-22.5 10.5t-26.5 4.5q0 -15 8 -24.5t20.5 -16.5t27 -12t26.5 -11h3zM80 -153q5 0 5 6.5t-5 6.5t-5 -6.5t5 -6.5zM121 -183q0 4 -3.5 6.5t-8.5 3.5t-10 1h-8
q0 -7 5 -12t11 -9q0 -1 3 -1t3 1q6 2 7 6q1 1 1 4zM200 -207l-3.5 -3.5t-8 -9t-8.5 -11t-7 -9.5l-2 -8q17 0 28.5 12.5t11.5 28.5h-11z" />
    <glyph glyph-name="cid91" unicode="z" horiz-adv-x="526" 
d="M507 160q-1 -11 -2.5 -30t-2.5 -38.5t-1.5 -34.5t-0.5 -17q0 -5 -1 -13t-2 -15.5t-2 -13t-2 -5.5h-226q13 8 17.5 11.5t4 5.5t-3 5.5t-2.5 11.5h-63q-8 0 -16 -12.5t-8 -21.5h-176q-5 0 -6 8.5t-1 12.5q0 11 8 28t18.5 34.5t22 31.5t18.5 19q-3 -12 5.5 -13t13.5 -1
q7 0 20 0.5t25 3t21 8t9 14.5q0 11 -4 23t-17 12q-4 0 -13 -4.5t-19.5 -10.5t-20 -11.5t-13.5 -7.5q4 11 13 25t13 22q6 9 20 31.5t30 48t30.5 48.5t19.5 32q4 12 17.5 14t22.5 -1q-1 2 -6.5 10t-6.5 10v3q0 14 8.5 26.5t18.5 25t18.5 25t8.5 27.5q0 3 -1 8t-6 5h-151
l-43 -120q-5 -13 -13.5 -13.5t-17.5 -0.5h-19t-16 7l-1 67v17t0.5 22t0.5 19v9q0 4 1 11t2 13.5t2 11l1 4.5h464q0 -16 -2.5 -35t-14.5 -32l-207 -340q-3 -4 -9.5 -15.5t-14 -24t-14 -24.5t-8.5 -16q-1 -2 -1 -7q0 -6 2.5 -9.5t11.5 -3.5h140l13 13q6 19 9.5 38.5t8 35.5
t12.5 26t24 10v24h46q11 0 12.5 -6.5t1.5 -12.5v-8zM93 542q-8 0 -18 -2t-10 -13h28v15zM213 227q3 0 3 3t-3 3q-3 1 -3 -3t3 -3zM243 120q7 0 13 6t10 14t6 17t2 14t-7.5 11.5t-16.5 13.5t-18 13t-12 11l-1 -13q0 -3 0.5 -8t0.5 -6q0 -2 3 -7.5t7 -12t7 -12.5t3 -8
t-3.5 -13t-3.5 -13q0 -1 2.5 -3.5t4.5 -3.5h3z" />
    <glyph glyph-name="cid92" unicode="{" horiz-adv-x="383" 
d="M267 -126q10 0 25 -1t29 -5.5t23.5 -12.5t9.5 -21q0 -28 -30 -28q-41 0 -81.5 7.5t-72.5 26t-51.5 49.5t-19.5 78q0 35 9.5 66.5t20.5 62.5t19 63t5 68q8 -2 12 4t6 13.5t2 14.5v8q-1 6 -6.5 6.5t-9.5 0.5q-11 0 -15.5 -5.5t-8.5 -15.5q-21 10 -46.5 18.5l-46.5 15.5v46
q0 3 16.5 8.5t37 14.5t38.5 21.5t21 29.5q1 2 2 10.5t1.5 19t1.5 19.5t2 11l27 26q0 1 -1.5 3t-1.5 3q-12 0 -19 -7t-12 -19q-10 25 -20 47.5t-17.5 44.5t-12 45t-4.5 50l1 47q14 31 36 52t50 33t59.5 17t64.5 5l30 -1q11 -3 12.5 -10t1.5 -16q0 -13 -9 -18.5t-22.5 -9.5
t-29 -8t-29 -13t-22.5 -25.5t-9 -45.5q0 -27 5.5 -53t11.5 -52t11.5 -52.5t5.5 -53.5q0 -42 -19 -77.5t-61 -51.5q-3 7 -10 16.5t-17 9.5q-2 0 -7 -2.5t-6 -3.5q15 -13 34.5 -32t31.5 -35q-4 -1 -6 -7q-1 0 -1 -3q0 -6 8 -11.5t13 -5.5l6 7q1 1 4 1q9 0 15 -12.5t9 -28
t4.5 -30.5t1.5 -20q0 -28 -5.5 -55t-11.5 -53.5t-11.5 -53.5t-5.5 -55q0 -16 4 -30.5t10 -29.5q-11 4 -15 0t-4.5 -11.5t0.5 -15.5t1 -13h38v21zM179 717q0 15 -13 22.5t-26 7.5q-5 0 -9.5 -2t-4.5 -8q0 -3 1 -4q12 -9 24.5 -12.5t27.5 -3.5zM240 453q1 3 -3 3t-4 -3
q1 -3 3.5 -3t3.5 3z" />
    <glyph glyph-name="cid93" unicode="|" horiz-adv-x="304" 
d="M150 -287q7 0 21.5 -0.5t21.5 7.5q1 -1 1 -3q0 -3 -1 -4l-3 -3q-2 -1 -3 -3h-87v713l13 -13q3 9 8.5 19.5t5.5 20.5q0 6 -2 9.5t-12 3.5q-2 -1 -3 -2q-3 -2 -3 -5q-1 -2 -4 -9.5t-3 -10.5v254q2 -6 5.5 -6.5t7.5 -0.5q9 0 11.5 4.5t2.5 12.5q0 13 -7 16t-20 3v137h93
v-1111q-20 0 -38 -6.5t-40 -6.5q0 -7 -1.5 -9.5t6.5 -6.5h30zM180 67q7 1 7 8.5v11.5q0 11 -5.5 15t-11.5 6.5t-11.5 6t-5.5 12.5q0 7 2.5 11t11.5 9q1 4 4.5 15t7 24t6.5 26.5t3 23.5q-7 0 -16.5 -3.5t-11.5 -12.5q-9 -30 -18.5 -41t-17.5 -14t-13 -4t-5 -12v-5.5t1 -3.5z
" />
    <glyph glyph-name="cid94" unicode="}" horiz-adv-x="383" 
d="M38 773v16t-13 6q0 4 1.5 10t6.5 8l27 1q25 0 51 -1.5t49 -12.5q-10 -3 -19 -11.5t-14 -15.5q9 -13 27 -13q14 0 18.5 12.5t4.5 23.5q25 0 44 -13.5t32 -34t20 -44.5t7 -44q0 -30 -9.5 -58t-20.5 -55.5t-20.5 -55.5t-9.5 -58q0 -32 19 -47t41.5 -24t41.5 -19t19 -32
q0 -15 -9 -23t-22.5 -13t-29 -9.5t-29 -13.5t-22.5 -24t-9 -41q0 -30 9.5 -57.5t20.5 -54.5t20.5 -54.5t9.5 -57.5q0 -35 -12.5 -61.5t-40.5 -48.5v14l-34 13q-5 2 -5.5 -5.5t0.5 -17.5t0 -19t-8 -11q-35 -14 -78 -15t-78 -1v8t0.5 13t1 13t1.5 8q0 2 2.5 4.5t3.5 2.5
q25 4 45 10t34 17t21.5 28t7.5 44q0 26 -4.5 51.5t-9.5 51t-9.5 51t-4.5 51.5q0 33 12.5 58t28 42.5t28 28.5t12.5 17q0 12 -12.5 22t-28 26t-28 40.5t-12.5 64.5q0 26 4 51.5t9.5 51t9.5 50.5t4 51q0 38 -18 56.5t-40 27t-40 12t-18 10.5h14zM240 667h-7v-14h7v14zM187 557
q0 8 -12 9t-19 1t-15.5 -2t-8.5 -11q0 -12 8.5 -16.5t18.5 -4.5q11 0 19.5 5.5t8.5 18.5zM153 173q5 0 5 7t-5 7t-5 -7t5 -7zM187 127q-2 1 -5.5 5t-8 8.5t-8.5 8t-5 4.5q-10 -11 -17 -25t-7 -29q6 0 14.5 1t16.5 3.5t14 7t6 12.5v4zM233 7q1 -1 6 -1q11 0 13 6t2 15
q1 6 0 10q-2 10 -7 10l-47 -7z" />
    <glyph glyph-name="cid95" unicode="~" horiz-adv-x="615" 
d="M243 393q-15 0 -28.5 7t-30.5 7q-30 0 -44 -18t-20.5 -39t-9.5 -39t-10 -18h-53l-7 7q0 1 -0.5 9t-0.5 13q0 30 10 58.5t28.5 51t44.5 36t59 13.5q26 0 35.5 -9.5t12.5 -23.5t5 -29t13 -26h-4zM567 480q3 0 4.5 -4.5t2 -10t0.5 -10v-5.5q0 -39 -18.5 -72t-48.5 -58
q-5 13 -20 27.5t-20 19.5q16 22 21 44t12 49q1 5 3.5 12.5t3.5 7.5h60zM247 460q-5 0 -5 6.5t5 6.5t5 -6.5t-5 -6.5zM447 360q-1 -7 -15.5 -9t-32 -5.5t-31.5 -10.5t-14 -23q-12 0 -26.5 9t-29 21t-26.5 24.5t-19 20.5q15 0 27.5 11.5t19.5 21.5q-23 2 -35.5 9.5t-12.5 31.5
q27 0 49.5 -16t44.5 -34.5t46 -34.5t55 -16zM380 320q1 0 10.5 1t14.5 1q21 0 38.5 -2t36.5 -13q-12 -8 -25.5 -11t-27.5 -3q-15 0 -31.5 2t-28.5 12z" />
    <glyph glyph-name="cid95" unicode="&#x303;" horiz-adv-x="615" 
d="M243 393q-15 0 -28.5 7t-30.5 7q-30 0 -44 -18t-20.5 -39t-9.5 -39t-10 -18h-53l-7 7q0 1 -0.5 9t-0.5 13q0 30 10 58.5t28.5 51t44.5 36t59 13.5q26 0 35.5 -9.5t12.5 -23.5t5 -29t13 -26h-4zM567 480q3 0 4.5 -4.5t2 -10t0.5 -10v-5.5q0 -39 -18.5 -72t-48.5 -58
q-5 13 -20 27.5t-20 19.5q16 22 21 44t12 49q1 5 3.5 12.5t3.5 7.5h60zM247 460q-5 0 -5 6.5t5 6.5t5 -6.5t-5 -6.5zM447 360q-1 -7 -15.5 -9t-32 -5.5t-31.5 -10.5t-14 -23q-12 0 -26.5 9t-29 21t-26.5 24.5t-19 20.5q15 0 27.5 11.5t19.5 21.5q-23 2 -35.5 9.5t-12.5 31.5
q27 0 49.5 -16t44.5 -34.5t46 -34.5t55 -16zM380 320q1 0 10.5 1t14.5 1q21 0 38.5 -2t36.5 -13q-12 -8 -25.5 -11t-27.5 -3q-15 0 -31.5 2t-28.5 12z" />
    <glyph glyph-name="cid96" horiz-adv-x="500" 
 />
    <glyph glyph-name="cid97" unicode="\" horiz-adv-x="425" 
d="M340 40q-10 5 -23 16t-25 23t-21 22t-11 12q-4 -13 -9.5 -25t-17.5 -21l-20 60l-160 520q-1 3 -3.5 13t-2.5 13l-1 8q0 9 5.5 9t5.5 8q-5 0 -7 1t-4 1t-4.5 -1.5t-8.5 -5.5q4 13 1 27.5t-8 29l-10 29t-5 28.5h89q2 0 4 -3t4 -7q3 -4 5 -10t6 -20t8.5 -28.5t8 -27.5
t4.5 -18v-13l-13 7l-5 -1q0 -1 -1 -3t-1 -3l7 -10.5t6 -9.5h7l7 3.5t6 3.5q-4 -16 2 -36t14.5 -40.5t16.5 -39.5t8 -34q0 -7 -1 -10q-5 9 -5.5 7t-5.5 -2q0 -2 -2 -10.5t7 -8.5q2 0 7 2.5t6 4.5l20 -60q3 -11 11 -36t18.5 -58.5t22 -71.5t22 -73t19.5 -64t14 -44q1 -3 3 -10
t4.5 -14.5t4 -14t1.5 -7.5v-7zM40 780q-1 3 -7 7h-6q2 -6 6 -7h7zM134 587q0 4 -1 6q-8 -5 -20.5 -18t-19.5 -22q0 -1 2.5 -3.5t4.5 -2.5q6 0 12 4.5t11 11t8 13t3 11.5zM253 160h-16q0 -9 5 -18t11 -15v33zM313 -187q-1 0 -10.5 27t-20.5 61.5t-20 65.5t-9 40v6
q6 -11 11 -17.5t9.5 -10.5t10 -5t14.5 -1q31 0 55 21l7 -13q5 -17 13 -42.5t15.5 -50t13 -42.5t5.5 -19v-20h-94zM368 -181v10t-1.5 11.5t-4 9.5t-8.5 4q-18 0 -27 -14q5 -10 17.5 -15.5t23.5 -5.5z" />
    <glyph glyph-name="cid98" horiz-adv-x="500" 
 />
    <glyph glyph-name="cid99" unicode="&#xa6;" horiz-adv-x="500" 
 />
    <glyph glyph-name="cid99" unicode="&#x1c0;" horiz-adv-x="500" 
 />
    <glyph glyph-name="cid100" horiz-adv-x="500" 
 />
    <glyph glyph-name="cid101" unicode="&#xa1;" horiz-adv-x="500" 
 />
    <glyph glyph-name="cid102" unicode="&#xa2;" horiz-adv-x="500" 
 />
    <glyph glyph-name="cid103" unicode="&#xa3;" horiz-adv-x="500" 
 />
    <glyph glyph-name="cid104" unicode="&#x2044;" horiz-adv-x="500" 
 />
    <glyph glyph-name="cid105" horiz-adv-x="500" 
 />
    <glyph glyph-name="cid106" horiz-adv-x="500" 
 />
    <glyph glyph-name="cid107" unicode="&#xa4;" horiz-adv-x="500" 
 />
    <glyph glyph-name="cid108" horiz-adv-x="500" 
 />
    <glyph glyph-name="cid109" unicode="&#xab;" horiz-adv-x="500" 
 />
    <glyph glyph-name="cid110" unicode="&#x2039;" horiz-adv-x="500" 
 />
    <glyph glyph-name="cid111" unicode="&#x203a;" horiz-adv-x="500" 
 />
    <glyph glyph-name="cid112" unicode="&#xfb01;" horiz-adv-x="500" 
 />
    <glyph glyph-name="cid113" unicode="&#xfb02;" horiz-adv-x="500" 
 />
    <glyph glyph-name="cid114" unicode="&#x2012;" horiz-adv-x="500" 
 />
    <glyph glyph-name="cid114" unicode="&#x2013;" horiz-adv-x="500" 
 />
    <glyph glyph-name="cid115" horiz-adv-x="500" 
 />
    <glyph glyph-name="cid116" horiz-adv-x="500" 
 />
    <glyph glyph-name="cid117" unicode="&#xb7;" horiz-adv-x="500" 
 />
    <glyph glyph-name="cid118" horiz-adv-x="500" 
 />
    <glyph glyph-name="cid119" unicode="&#x2022;" horiz-adv-x="500" 
 />
    <glyph glyph-name="cid120" unicode="&#x201a;" horiz-adv-x="500" 
 />
    <glyph glyph-name="cid121" unicode="&#x201e;" horiz-adv-x="500" 
 />
    <glyph glyph-name="cid122" horiz-adv-x="500" 
 />
    <glyph glyph-name="cid123" unicode="&#xbb;" horiz-adv-x="500" 
 />
    <glyph glyph-name="cid124" horiz-adv-x="500" 
 />
    <glyph glyph-name="cid125" horiz-adv-x="500" 
 />
    <glyph glyph-name="cid126" unicode="&#xbf;" horiz-adv-x="500" 
 />
    <glyph glyph-name="cid127" unicode="&#x301;" horiz-adv-x="500" 
 />
    <glyph glyph-name="cid128" unicode="&#x302;" horiz-adv-x="500" 
 />
    <glyph glyph-name="cid129" unicode="&#xaf;" horiz-adv-x="500" 
 />
    <glyph glyph-name="cid129" unicode="&#x304;" horiz-adv-x="500" 
 />
    <glyph glyph-name="cid130" unicode="&#x306;" horiz-adv-x="500" 
 />
    <glyph glyph-name="cid131" unicode="&#x307;" horiz-adv-x="500" 
 />
    <glyph glyph-name="cid132" unicode="&#x308;" horiz-adv-x="500" 
 />
    <glyph glyph-name="cid133" unicode="&#x30a;" horiz-adv-x="500" 
 />
    <glyph glyph-name="cid134" unicode="&#xb8;" horiz-adv-x="500" 
 />
    <glyph glyph-name="cid134" unicode="&#x327;" horiz-adv-x="500" 
 />
    <glyph glyph-name="cid135" unicode="&#x30b;" horiz-adv-x="500" 
 />
    <glyph glyph-name="cid136" unicode="&#x328;" horiz-adv-x="500" 
 />
    <glyph glyph-name="cid137" unicode="&#x30c;" horiz-adv-x="500" 
 />
    <glyph glyph-name="cid138" unicode="&#x336;" horiz-adv-x="500" 
 />
    <glyph glyph-name="cid138" unicode="&#x2014;" horiz-adv-x="500" 
 />
    <glyph glyph-name="cid139" unicode="&#xc6;" horiz-adv-x="500" 
 />
    <glyph glyph-name="cid140" unicode="&#xaa;" horiz-adv-x="500" 
 />
    <glyph glyph-name="cid141" unicode="&#x141;" horiz-adv-x="500" 
 />
    <glyph glyph-name="cid142" unicode="&#xd8;" horiz-adv-x="500" 
 />
    <glyph glyph-name="cid143" unicode="&#x152;" horiz-adv-x="500" 
 />
    <glyph glyph-name="cid144" unicode="&#xba;" horiz-adv-x="500" 
 />
    <glyph glyph-name="cid145" unicode="&#xe6;" horiz-adv-x="500" 
 />
    <glyph glyph-name="cid146" unicode="&#x131;" horiz-adv-x="500" 
 />
    <glyph glyph-name="cid147" unicode="&#x142;" horiz-adv-x="500" 
 />
    <glyph glyph-name="cid148" unicode="&#xf8;" horiz-adv-x="500" 
 />
    <glyph glyph-name="cid149" unicode="&#x153;" horiz-adv-x="500" 
 />
    <glyph glyph-name="cid150" unicode="&#xdf;" horiz-adv-x="500" 
 />
    <glyph glyph-name="cid151" unicode="&#xad;" horiz-adv-x="500" 
 />
    <glyph glyph-name="cid152" unicode="&#xa9;" horiz-adv-x="500" 
 />
    <glyph glyph-name="cid153" unicode="&#xac;" horiz-adv-x="500" 
 />
    <glyph glyph-name="cid154" unicode="&#xae;" horiz-adv-x="500" 
 />
    <glyph glyph-name="cid155" horiz-adv-x="500" 
 />
    <glyph glyph-name="cid156" horiz-adv-x="500" 
 />
    <glyph glyph-name="cid157" unicode="&#xb2;" horiz-adv-x="500" 
 />
    <glyph glyph-name="cid158" unicode="&#xb3;" horiz-adv-x="500" 
 />
    <glyph glyph-name="cid159" unicode="&#xb5;" horiz-adv-x="500" 
 />
    <glyph glyph-name="cid160" unicode="&#xb9;" horiz-adv-x="500" 
 />
    <glyph glyph-name="cid161" unicode="&#xbc;" horiz-adv-x="500" 
 />
    <glyph glyph-name="cid162" unicode="&#xbd;" horiz-adv-x="500" 
 />
    <glyph glyph-name="cid163" unicode="&#xbe;" horiz-adv-x="500" 
 />
    <glyph glyph-name="cid164" unicode="&#xc0;" horiz-adv-x="500" 
 />
    <glyph glyph-name="cid165" unicode="&#xc1;" horiz-adv-x="500" 
 />
    <glyph glyph-name="cid166" unicode="&#xc2;" horiz-adv-x="500" 
 />
    <glyph glyph-name="cid167" unicode="&#xc3;" horiz-adv-x="500" 
 />
    <glyph glyph-name="cid168" unicode="&#xc4;" horiz-adv-x="500" 
 />
    <glyph glyph-name="cid169" unicode="&#xc5;" horiz-adv-x="500" 
 />
    <glyph glyph-name="cid170" unicode="&#xc7;" horiz-adv-x="500" 
 />
    <glyph glyph-name="cid171" unicode="&#xc8;" horiz-adv-x="500" 
 />
    <glyph glyph-name="cid172" unicode="&#xc9;" horiz-adv-x="500" 
 />
    <glyph glyph-name="cid173" unicode="&#xca;" horiz-adv-x="500" 
 />
    <glyph glyph-name="cid174" unicode="&#xcb;" horiz-adv-x="500" 
 />
    <glyph glyph-name="cid175" unicode="&#xcc;" horiz-adv-x="500" 
 />
    <glyph glyph-name="cid176" unicode="&#xcd;" horiz-adv-x="500" 
 />
    <glyph glyph-name="cid177" unicode="&#xce;" horiz-adv-x="500" 
 />
    <glyph glyph-name="cid178" unicode="&#xcf;" horiz-adv-x="500" 
 />
    <glyph glyph-name="cid179" unicode="&#xd0;" horiz-adv-x="500" 
 />
    <glyph glyph-name="cid180" unicode="&#xd1;" horiz-adv-x="500" 
 />
    <glyph glyph-name="cid181" unicode="&#xd2;" horiz-adv-x="500" 
 />
    <glyph glyph-name="cid182" unicode="&#xd3;" horiz-adv-x="500" 
 />
    <glyph glyph-name="cid183" unicode="&#xd4;" horiz-adv-x="500" 
 />
    <glyph glyph-name="cid184" unicode="&#xd5;" horiz-adv-x="500" 
 />
    <glyph glyph-name="cid185" unicode="&#xd6;" horiz-adv-x="500" 
 />
    <glyph glyph-name="cid186" horiz-adv-x="500" 
 />
    <glyph glyph-name="cid187" unicode="&#xd9;" horiz-adv-x="500" 
 />
    <glyph glyph-name="cid188" unicode="&#xda;" horiz-adv-x="500" 
 />
    <glyph glyph-name="cid189" unicode="&#xdb;" horiz-adv-x="500" 
 />
    <glyph glyph-name="cid190" unicode="&#xdc;" horiz-adv-x="500" 
 />
    <glyph glyph-name="cid191" unicode="&#xdd;" horiz-adv-x="500" 
 />
    <glyph glyph-name="cid192" unicode="&#xde;" horiz-adv-x="500" 
 />
    <glyph glyph-name="cid193" unicode="&#xe0;" horiz-adv-x="500" 
 />
    <glyph glyph-name="cid194" unicode="&#xe1;" horiz-adv-x="500" 
 />
    <glyph glyph-name="cid195" unicode="&#xe2;" horiz-adv-x="500" 
 />
    <glyph glyph-name="cid196" unicode="&#xe3;" horiz-adv-x="500" 
 />
    <glyph glyph-name="cid197" unicode="&#xe4;" horiz-adv-x="500" 
 />
    <glyph glyph-name="cid198" unicode="&#xe5;" horiz-adv-x="500" 
 />
    <glyph glyph-name="cid199" unicode="&#xe7;" horiz-adv-x="500" 
 />
    <glyph glyph-name="cid200" unicode="&#xe8;" horiz-adv-x="500" 
 />
    <glyph glyph-name="cid201" unicode="&#xe9;" horiz-adv-x="500" 
 />
    <glyph glyph-name="cid202" unicode="&#xea;" horiz-adv-x="500" 
 />
    <glyph glyph-name="cid203" unicode="&#xeb;" horiz-adv-x="500" 
 />
    <glyph glyph-name="cid204" unicode="&#xec;" horiz-adv-x="500" 
 />
    <glyph glyph-name="cid205" unicode="&#xed;" horiz-adv-x="500" 
 />
    <glyph glyph-name="cid206" unicode="&#xee;" horiz-adv-x="500" 
 />
    <glyph glyph-name="cid207" unicode="&#xef;" horiz-adv-x="500" 
 />
    <glyph glyph-name="cid208" unicode="&#xf0;" horiz-adv-x="500" 
 />
    <glyph glyph-name="cid209" unicode="&#xf1;" horiz-adv-x="500" 
 />
    <glyph glyph-name="cid210" unicode="&#xf2;" horiz-adv-x="500" 
 />
    <glyph glyph-name="cid211" unicode="&#xf3;" horiz-adv-x="500" 
 />
    <glyph glyph-name="cid212" unicode="&#xf4;" horiz-adv-x="500" 
 />
    <glyph glyph-name="cid213" unicode="&#xf5;" horiz-adv-x="500" 
 />
    <glyph glyph-name="cid214" unicode="&#xf6;" horiz-adv-x="500" 
 />
    <glyph glyph-name="cid215" horiz-adv-x="500" 
 />
    <glyph glyph-name="cid216" unicode="&#xf9;" horiz-adv-x="500" 
 />
    <glyph glyph-name="cid217" unicode="&#xfa;" horiz-adv-x="500" 
 />
    <glyph glyph-name="cid218" unicode="&#xfb;" horiz-adv-x="500" 
 />
    <glyph glyph-name="cid219" unicode="&#xfc;" horiz-adv-x="500" 
 />
    <glyph glyph-name="cid220" unicode="&#xfd;" horiz-adv-x="500" 
 />
    <glyph glyph-name="cid221" unicode="&#xfe;" horiz-adv-x="500" 
 />
    <glyph glyph-name="cid222" unicode="&#xff;" horiz-adv-x="500" 
 />
    <glyph glyph-name="cid223" unicode="&#x160;" horiz-adv-x="500" 
 />
    <glyph glyph-name="cid224" unicode="&#x178;" horiz-adv-x="500" 
 />
    <glyph glyph-name="cid225" unicode="&#x17d;" horiz-adv-x="500" 
 />
    <glyph glyph-name="cid226" unicode="&#x305;" horiz-adv-x="500" 
 />
    <glyph glyph-name="cid227" unicode="&#x161;" horiz-adv-x="500" 
 />
    <glyph glyph-name="cid228" unicode="&#x2122;" horiz-adv-x="500" 
 />
    <glyph glyph-name="cid229" unicode="&#x17e;" horiz-adv-x="500" 
 />
    <glyph glyph-name="cid230" horiz-adv-x="500" 
 />
    <glyph glyph-name="cid231" unicode="&#x2002;" horiz-adv-x="500" 
 />
    <glyph glyph-name="cid232" horiz-adv-x="500" 
 />
    <glyph glyph-name="cid233" horiz-adv-x="500" 
 />
    <glyph glyph-name="cid234" horiz-adv-x="500" 
 />
    <glyph glyph-name="cid235" horiz-adv-x="500" 
 />
    <glyph glyph-name="cid236" horiz-adv-x="500" 
 />
    <glyph glyph-name="cid237" horiz-adv-x="500" 
 />
    <glyph glyph-name="cid238" horiz-adv-x="500" 
 />
    <glyph glyph-name="cid239" horiz-adv-x="500" 
 />
    <glyph glyph-name="cid240" horiz-adv-x="500" 
 />
    <glyph glyph-name="cid241" horiz-adv-x="500" 
 />
    <glyph glyph-name="cid242" horiz-adv-x="500" 
 />
    <glyph glyph-name="cid243" horiz-adv-x="500" 
 />
    <glyph glyph-name="cid244" horiz-adv-x="500" 
 />
    <glyph glyph-name="cid245" horiz-adv-x="500" 
 />
    <glyph glyph-name="cid246" horiz-adv-x="500" 
 />
    <glyph glyph-name="cid247" horiz-adv-x="500" 
 />
    <glyph glyph-name="cid248" horiz-adv-x="500" 
 />
    <glyph glyph-name="cid249" horiz-adv-x="500" 
 />
    <glyph glyph-name="cid250" horiz-adv-x="500" 
 />
    <glyph glyph-name="cid251" horiz-adv-x="500" 
 />
    <glyph glyph-name="cid252" horiz-adv-x="500" 
 />
    <glyph glyph-name="cid253" horiz-adv-x="500" 
 />
    <glyph glyph-name="cid254" horiz-adv-x="500" 
 />
    <glyph glyph-name="cid255" horiz-adv-x="500" 
 />
    <glyph glyph-name="cid256" horiz-adv-x="500" 
 />
    <glyph glyph-name="cid257" horiz-adv-x="500" 
 />
    <glyph glyph-name="cid258" horiz-adv-x="500" 
 />
    <glyph glyph-name="cid259" horiz-adv-x="500" 
 />
    <glyph glyph-name="cid260" horiz-adv-x="500" 
 />
    <glyph glyph-name="cid261" horiz-adv-x="500" 
 />
    <glyph glyph-name="cid262" horiz-adv-x="500" 
 />
    <glyph glyph-name="cid263" horiz-adv-x="500" 
 />
    <glyph glyph-name="cid264" horiz-adv-x="500" 
 />
    <glyph glyph-name="cid265" horiz-adv-x="500" 
 />
    <glyph glyph-name="cid266" horiz-adv-x="500" 
 />
    <glyph glyph-name="cid267" horiz-adv-x="500" 
 />
    <glyph glyph-name="cid268" horiz-adv-x="500" 
 />
    <glyph glyph-name="cid269" horiz-adv-x="500" 
 />
    <glyph glyph-name="cid270" horiz-adv-x="500" 
 />
    <glyph glyph-name="cid271" horiz-adv-x="500" 
 />
    <glyph glyph-name="cid272" horiz-adv-x="500" 
 />
    <glyph glyph-name="cid273" horiz-adv-x="500" 
 />
    <glyph glyph-name="cid274" horiz-adv-x="500" 
 />
    <glyph glyph-name="cid275" horiz-adv-x="500" 
 />
    <glyph glyph-name="cid276" horiz-adv-x="500" 
 />
    <glyph glyph-name="cid277" horiz-adv-x="500" 
 />
    <glyph glyph-name="cid278" horiz-adv-x="500" 
 />
    <glyph glyph-name="cid279" horiz-adv-x="500" 
 />
    <glyph glyph-name="cid280" horiz-adv-x="500" 
 />
    <glyph glyph-name="cid281" horiz-adv-x="500" 
 />
    <glyph glyph-name="cid282" horiz-adv-x="500" 
 />
    <glyph glyph-name="cid283" horiz-adv-x="500" 
 />
    <glyph glyph-name="cid284" horiz-adv-x="500" 
 />
    <glyph glyph-name="cid285" horiz-adv-x="500" 
 />
    <glyph glyph-name="cid286" horiz-adv-x="500" 
 />
    <glyph glyph-name="cid287" horiz-adv-x="500" 
 />
    <glyph glyph-name="cid288" horiz-adv-x="500" 
 />
    <glyph glyph-name="cid289" horiz-adv-x="500" 
 />
    <glyph glyph-name="cid290" horiz-adv-x="500" 
 />
    <glyph glyph-name="cid291" horiz-adv-x="500" 
 />
    <glyph glyph-name="cid292" horiz-adv-x="500" 
 />
    <glyph glyph-name="cid293" horiz-adv-x="500" 
 />
    <glyph glyph-name="cid294" horiz-adv-x="500" 
 />
    <glyph glyph-name="cid295" horiz-adv-x="500" 
 />
    <glyph glyph-name="cid296" horiz-adv-x="500" 
 />
    <glyph glyph-name="cid297" horiz-adv-x="500" 
 />
    <glyph glyph-name="cid298" horiz-adv-x="500" 
 />
    <glyph glyph-name="cid299" horiz-adv-x="500" 
 />
    <glyph glyph-name="cid300" horiz-adv-x="500" 
 />
    <glyph glyph-name="cid301" horiz-adv-x="500" 
 />
    <glyph glyph-name="cid302" horiz-adv-x="500" 
 />
    <glyph glyph-name="cid303" horiz-adv-x="500" 
 />
    <glyph glyph-name="cid304" horiz-adv-x="500" 
 />
    <glyph glyph-name="cid305" horiz-adv-x="500" 
 />
    <glyph glyph-name="cid306" horiz-adv-x="500" 
 />
    <glyph glyph-name="cid307" horiz-adv-x="500" 
 />
    <glyph glyph-name="cid308" horiz-adv-x="500" 
 />
    <glyph glyph-name="cid309" horiz-adv-x="500" 
 />
    <glyph glyph-name="cid310" horiz-adv-x="500" 
 />
    <glyph glyph-name="cid311" horiz-adv-x="500" 
 />
    <glyph glyph-name="cid312" horiz-adv-x="500" 
 />
    <glyph glyph-name="cid313" horiz-adv-x="500" 
 />
    <glyph glyph-name="cid314" horiz-adv-x="500" 
 />
    <glyph glyph-name="cid315" horiz-adv-x="500" 
 />
    <glyph glyph-name="cid316" horiz-adv-x="500" 
 />
    <glyph glyph-name="cid317" horiz-adv-x="500" 
 />
    <glyph glyph-name="cid318" horiz-adv-x="500" 
 />
    <glyph glyph-name="cid319" horiz-adv-x="500" 
 />
    <glyph glyph-name="cid320" horiz-adv-x="500" 
 />
    <glyph glyph-name="cid321" horiz-adv-x="500" 
 />
    <glyph glyph-name="cid322" horiz-adv-x="500" 
 />
    <glyph glyph-name="cid323" unicode="&#xffe8;" horiz-adv-x="500" 
 />
    <glyph glyph-name="cid324" horiz-adv-x="500" 
 />
    <glyph glyph-name="cid325" unicode="&#x203e;" horiz-adv-x="500" 
 />
    <glyph glyph-name="cid326" horiz-adv-x="500" 
 />
    <glyph glyph-name="cid327" unicode="&#xff61;" horiz-adv-x="500" 
d="M327 57q0 -33 -11.5 -61t-32 -48t-48.5 -31t-60 -11t-58.5 11.5t-45 31t-28.5 46.5t-10 58v27.5t7 26.5q2 -2 10 -7t10 -7q2 -1 8 -3q3 -1 5 -3q7 0 7.5 7t0.5 9q0 16 -10 18t-26 2q0 21 15 35.5t35.5 24t43 14t37.5 4.5q32 0 59.5 -10t48 -29t32 -45.5t11.5 -59.5z
M120 170q0 -7 0.5 -12t6.5 -11q4 1 6 6q1 1 1 4q0 6 -4.5 12.5t-9.5 10.5v-10zM273 53q0 42 -26 68t-65 26q-43 0 -69.5 -25.5t-26.5 -68.5q0 -39 25.5 -66t64.5 -27q42 0 69.5 25.5t27.5 67.5zM73 -20q5 0 5 6.5t-5 6.5t-5 -6.5t5 -6.5zM260 -33q1 3 -3 3t-4 -3
q1 -3 3.5 -3t3.5 3z" />
    <glyph glyph-name="cid328" unicode="&#xff62;" horiz-adv-x="500" 
d="M480 833q-1 -6 -3.5 -18t-3.5 -12h-273l-10 -10v-580q-5 -2 -9 -3l-8 -2t-6 -1q-1 -1 -4 -1q-2 0 -3 1q-3 0 -6.5 1t-6.5 2q-4 1 -7 3v200l27 -46q0 -2 3 -2q5 0 7.5 7t3 15.5t0.5 16v9.5q0 4 -4.5 16t-11 25.5t-13.5 25t-12 13.5v80h18q0 2 -1.5 9.5t-4.5 15.5t-6 14.5
t-6 7.5v233h333q6 0 6.5 -4.5t0.5 -7.5v-8z" />
    <glyph glyph-name="cid329" unicode="&#xff63;" horiz-adv-x="500" 
d="M353 469q-11 0 -14.5 -3.5t-3.5 -12.5h18v-164h-13t-13 -1.5t-10.5 -5.5t-4.5 -12q0 -17 18 -17h3l20 7v-173q-1 5 -5 6t-8 1q-11 0 -14.5 -6.5t-3.5 -14.5h31v-173h-126q5 0 5 6.5t-5 6.5t-5 -6.5t5 -6.5h-207q-6 0 -6.5 5t-0.5 8v7q0 3 1 8t3 10t3 12h273l10 17v573
q5 1 9 2q8 2 15 5h6q2 -1 6 -1.5t7 -2.5q4 -2 7 -3v-71zM320 213q-5 0 -5 -6.5t5 -6.5t5 6.5t-5 6.5z" />
    <glyph glyph-name="cid330" unicode="&#xff64;" horiz-adv-x="500" 
d="M160 130q0 -12 -7 -22t-15.5 -19.5t-15.5 -20t-7 -24.5q25 0 40 -7t24.5 -15.5t16 -15.5t14.5 -7q3 0 3 1q1 1 3 8.5t4 11.5l7 27q0 6 -5.5 14.5t-12 17t-13 16t-9.5 12.5q-1 0 -1 3q0 2 -1 4q21 0 38.5 -13.5t30 -33t19.5 -41.5t7 -40q0 -30 -20 -54.5t-53 -24.5
q-19 0 -34 9.5t-26 23.5q-15 32 -30.5 58.5t-31.5 51.5t-32.5 50t-32.5 53l-1 7q0 6 3 12.5t11 7.5q13 2 30.5 -3t35 -12.5t34 -16.5l27.5 -15v-3zM180 113q-5 0 -5 7t5 7t5 -7t-5 -7z" />
    <glyph glyph-name="cid331" unicode="&#xff65;" horiz-adv-x="500" 
d="M200 260q-9 0 -21 6.5t-22.5 16t-17.5 20.5t-7 21q12 0 19 1.5t7 12.5q-12 0 -17 2t-14 -7q-6 13 -6.5 22t-0.5 22q0 25 9.5 47.5t26.5 39.5t39 27t48 10l30 -1q-14 -2 -27.5 -6t-13.5 -20q0 -10 6.5 -21t16 -21t20 -18.5t18.5 -13.5q0 9 6 18.5t14 18t15.5 14.5t11.5 9
q16 -12 25 -34.5t9 -41.5q0 -28 -9.5 -52t-26.5 -41.5t-40 -27.5t-51 -10h-27q8 10 10.5 16t2.5 11.5t-1.5 12.5t-1.5 19q-5 0 -10 -5t-9 -11.5t-7 -13t-4 -9.5v-6q2 -5 7 -7h-7zM307 487q-3 -1 -7 -1q-6 0 -10 1.5t-10 5.5q2 1 7 1q6 0 10 -1.5t10 -5.5zM313 473q-5 0 -5 7
t5 7t5 -7t-5 -7zM333 473q5 0 5 -6.5t-5 -6.5t-5 7h-1q-5 0 -5 6.5t5 6.5t5 -7h1zM202 465q-4 0 -11.5 -0.5t-15 -2t-14 -5t-8.5 -10.5q8 -14 20 -14t20.5 10t8.5 22zM267 361q0 7 -5 10t-12 3q-3 0 -3 -1q-2 0 -5 -3q-1 -2 -2 -3q0 -5 5.5 -13t11.5 -8t8 4.5t2 10.5z
M320 293l-7 -6h14z" />
    <glyph glyph-name="cid332" unicode="&#xff66;" horiz-adv-x="500" 
d="M276 577q0 16 -8.5 28t-8.5 28q0 15 6.5 31t17 28.5t25 20.5t29.5 8q22 0 47.5 -14t47 -35t35.5 -45.5t14 -46.5q0 -12 -4 -22.5t-9.5 -21t-11.5 -21t-9 -22.5q-12 -39 -31.5 -95t-46.5 -117t-61 -121t-74.5 -107.5t-88 -77t-100.5 -29.5q-7 0 -12.5 1t-5.5 13
q0 10 13 27.5t30 36.5t33.5 36t23.5 27q3 4 11.5 16.5t18 26.5t18 26t12.5 17v-80q-6 -7 -10.5 -17.5t-8.5 -21.5t-9 -20.5t-12 -13.5q-6 -3 -15 -5t-17.5 -5t-15 -8.5t-6.5 -14.5q0 -1 2.5 -3.5t4.5 -3.5h3q7 0 25 13t37 29.5t34 30l15 13.5q0 8 -4 14t-4 14q0 11 6.5 14.5
t14 5t14 3.5t6.5 11q0 16 -3.5 31.5t-3.5 31.5q0 19 12.5 33t28 25.5t28 22t12.5 21.5q0 12 -7.5 13t-16.5 1q-15 0 -25.5 -5t-24.5 -9q5 13 6 22.5t1 21.5q0 6 -0.5 14.5t-10.5 8.5q-6 0 -16 -3.5t-20.5 -9t-19.5 -12.5t-14 -15l14 -13q-20 -13 -32.5 -17t-30.5 -4
q-7 0 -18.5 2.5t-22 7.5t-18 12t-7.5 17q10 0 27 11.5t34 27t31 31.5t17 25l-14 7q16 3 41 6.5t48 10.5t40 20t18 36q1 9 0.5 22t-1.5 25v14.5t-1 15.5h-22zM213 623q12 -11 19.5 -25.5t20.5 -24.5q-14 -5 -31.5 -15t-36 -20t-36.5 -17.5t-32 -7.5h-4l-20 7q26 -4 49 7.5
t38 32.5q-6 15 -1 31t21 22q-4 4 -13 8t-19.5 7t-20 4.5t-14.5 0.5q-13 -2 -16.5 -6t-6.5 -8t-10.5 -6t-26.5 0q-4 -15 -10.5 -27.5t-15.5 -25.5q-25 17 -29.5 45.5t-4.5 54.5v40q2 6 7.5 6.5t10.5 0.5q11 0 16.5 -3.5t12.5 -16.5h-33v-14q0 -6 6 -10t14.5 -6.5t17.5 -3
t14 -0.5h12t9 7q36 4 74 12t73 8h6q-4 -5 -6.5 -13t-4 -16.5t-2 -16t-0.5 -11.5h-27zM473 580q3 1 3 3.5t-3 3.5q-3 0 -3 -4t3 -3zM53 547q-5 0 -5 6.5t5 6.5t5 -6.5t-5 -6.5zM73 527q-5 0 -5 6.5t5 6.5t5 -6.5t-5 -6.5zM367 533v-13q8 5 8 13h-8zM87 527q-1 -3 -3.5 -3
t-3.5 3t3 3t4 -3zM27 373q-6 14 -6.5 24t-0.5 24q0 13 1.5 23t18.5 10q11 0 22 -5t22.5 -11t23.5 -11.5t25 -6.5q-1 -2 -16 -10t-33 -16t-34 -14.5t-20 -6.5h-3zM213 213q-5 0 -5 7t5 7t5 -7t-5 -7zM207 200q-5 0 -5 6.5t5 6.5t5 -6.5t-5 -6.5z" />
    <glyph glyph-name="cid333" unicode="&#xff67;" horiz-adv-x="500" 
d="M253 387q9 0 13 10t5 23t0.5 24.5t-0.5 14.5q-21 0 -39 -9.5t-36 -20.5t-36 -20.5t-37 -9.5q-21 0 -34.5 16t-21.5 38.5t-11 46.5t-3 41q0 5 -0.5 13t0 15.5t4 12.5t12.5 5q11 0 18 -6.5t13.5 -14t15 -14t23.5 -6.5q35 0 78 3.5t76 17.5q16 7 28 17t30 10q13 0 29 -11.5
t29.5 -27.5t22.5 -34t9 -31q0 -12 -6.5 -23.5t-14.5 -19.5q-5 -6 -17 -19t-26 -28t-26.5 -28.5t-17.5 -18.5v-6q0 -8 3.5 -13.5t3.5 -13.5v-7q-6 -18 -18.5 -53.5t-30 -78.5t-39 -88t-46.5 -82.5t-52.5 -61t-56.5 -23.5q-6 0 -11.5 8t-5.5 13q0 1 2.5 6t4.5 7q0 1 3 1t3 -1
q2 -1 7 -7t7 -6q2 -1 6.5 1.5t9 6.5t7.5 7.5t3 4.5q1 0 1 3q0 2 -1 3q0 1 -2 6t-4.5 11t-4.5 10.5t-2 6.5v3q0 9 7.5 10t13.5 1q11 0 18 -7.5t18 -7.5q2 0 3 1q12 19 25 37.5t28 35.5l-6 7h-60l-7 -7q8 -3 14.5 -7t6.5 -13q0 -14 -15 -14q-8 0 -14 6t-6 14q0 32 11 65
t24.5 66t25 65.5t11.5 62.5q-12 0 -17 2t-14 -7l-34 33q-1 1 -1 6q0 9 9.5 18.5t18.5 9.5h73zM367 567q-2 8 -8 11t-12 3q-5 0 -7 -1q-2 -4 -7 -16.5t-6 -16.5q-1 -1 -1 -4.5v-4.5q4 0 11.5 2t14.5 5.5t11.5 9t3.5 12.5zM273 500q-13 4 -27.5 10.5t-25.5 16.5q-1 -3 -1 -10
q0 -6 2.5 -8.5t5 -4t5 -3.5t2.5 -7q0 -9 -3.5 -15t-10.5 -12h13zM119 487q-13 0 -13 -10q0 -3 1 -4q10 -12 16.5 -16t19.5 -4q9 0 20 4.5t11 15.5q0 5 -1 7q-2 0 -9 1t-14.5 2t-14.5 2t-8 2h-8zM280 200h-20q0 -9 6.5 -13t13.5 -4v17z" />
    <glyph glyph-name="cid334" unicode="&#xff68;" horiz-adv-x="500" 
d="M420 500q-8 -11 -22.5 -30.5t-29 -42t-25 -44t-10.5 -36.5q0 -13 7 -22.5t7 -23.5q0 -15 -1.5 -26.5t-5.5 -27.5v-280q0 -21 -16.5 -31t-33.5 -10q-26 0 -44.5 18.5t-25.5 42.5v46q0 45 2.5 89t2.5 90q-27 0 -49.5 -17t-44 -37t-45 -37t-53.5 -17v23q85 96 144 195.5
t106 217.5v-33h30q0 20 2 29t5 13.5t5 8.5t2 15q0 10 -5.5 12t-14.5 2q-11 0 -15.5 -3.5t-7 -9.5t-4.5 -13t-7 -14q-3 2 -9.5 6t-13.5 9.5t-12 11.5t-5 12q0 9 6.5 13.5t13.5 7.5l37 1q12 0 32.5 -4.5t41 -13.5t35.5 -22.5t15 -31.5q0 -5 -8.5 -8t-12.5 -8q1 -2 6.5 -4.5
t7.5 -2.5q2 1 7 6t6 8v-27zM360 518q2 0 11 1.5t9 7.5q0 4 -5.5 12t-11.5 8h-3v-29zM133 173v-6l7 6h-7zM333 80q-11 10 -21 25t-21 29.5t-24 24.5t-29 10l2 -9q1 -2 7 -10t6 -10q1 -1 1 -3q0 -6 -3.5 -9.5t-7 -6.5t-7 -7t-3.5 -10q28 -25 50 -43q19 -17 34 -30t16 -13v62z
" />
    <glyph glyph-name="cid335" unicode="&#xff69;" horiz-adv-x="500" 
d="M133 603q0 10 9.5 16.5t22 9.5t25 4t18.5 1q11 0 30 -4t37.5 -12t32 -19.5t13.5 -27.5q0 -14 -3 -27.5t-3 -28.5q9 0 17.5 2.5t17.5 2.5q16 0 32 -10t29 -24.5t21 -31.5t8 -31q0 -10 -4.5 -33.5t-12 -53t-16.5 -62.5t-19 -61t-19 -48t-16 -25q-1 2 -6 7t-7 6q-1 1 -3 1
q-3 0 -4 -1q-1 -45 -46 -46q-1 -1 -1 -4q0 -8 11.5 -12.5t15.5 -3.5q3 0 10 4.5t9 7.5q-11 -23 -32.5 -51.5t-49.5 -54t-59 -43t-61 -17.5q-8 0 -12.5 2.5t-4.5 11.5v6q40 45 74 94t59 102t39.5 110t14.5 118v3l-3.5 7t-3.5 6l-16 1q-6 0 -17 -1t-22 -3.5t-19.5 -6.5
t-8.5 -10v-200q0 -5 -4.5 -10t-11 -9t-13.5 -6t-11 -2q-26 0 -44.5 18.5t-25.5 42.5q0 11 -0.5 39.5t-1.5 60.5t-2.5 60.5t-2.5 39.5v6l14 7v3q0 11 -7.5 17t-19.5 0l-20 40q-1 1 -1 2v5q0 12 9 13t19 1q12 0 24 -4.5t23.5 -9.5t23 -9.5t22.5 -4.5q13 0 13 10q0 32 -1.5 49
t-4.5 24.5t-8 9.5t-11.5 4t-15 8t-19.5 22v3zM293 587q4 -6 7 -7v7q-1 4 -7 6v-6zM302 553q0 9 -9 14v-14h9zM333 487q-5 8 -15 8q0 -11 9 -15zM367 380q4 1 6 7q0 1 -2.5 3.5t-3.5 2.5q-2 0 -7.5 -2.5t-6.5 -3.5q4 -6 7 -7h7zM369 267q0 19 -11.5 36t-34.5 17h-3
q-3 -1 -7 -7v-6l20 -40h36zM347 133q5 0 5 -6.5t-5 -6.5t-5 6.5t5 6.5zM340 120q5 0 5 -6.5t-5 -6.5t-5 6.5t5 6.5zM333 100l-1 -1z" />
    <glyph glyph-name="cid336" unicode="&#xff6a;" horiz-adv-x="500" 
d="M327 173q16 11 27 12.5t28 1.5q36 0 60.5 -26.5t24.5 -62.5q0 -22 -11.5 -36.5t-35.5 -14.5h-173l13 26q0 1 -2.5 3.5t-4.5 3.5h-3q-14 -19 -31 -34q-14 -13 -33.5 -23t-41.5 -10q-23 0 -38 12.5t-24 31t-12.5 40t-3.5 40.5l1 36q0 3 5.5 8t7.5 6q7 1 16.5 -5t20.5 -14
t23 -15t23 -7q4 0 11.5 0.5t14.5 2t12.5 4t5.5 7.5v160q0 12 -9 19t-22.5 14t-29 15t-29 21.5t-22.5 33.5t-9 51q0 9 2 14.5t12 5.5t19.5 -4.5t19 -9.5t19.5 -9.5t21 -4.5q25 0 47.5 6.5t44.5 14t44 14t45 6.5q14 0 27 -5t23.5 -14t17 -21.5t6.5 -27.5q0 -20 -14.5 -28
t-32.5 -12.5t-32.5 -10.5t-14.5 -21q0 -8 3.5 -15t3.5 -15q0 -15 -4.5 -30.5t-9.5 -31.5t-9.5 -32.5t-4.5 -33.5l1 -29zM348 403q0 17 3.5 28.5t7 21.5t7 19.5t3.5 22.5q-13 0 -23.5 -12t-19 -27.5t-15 -31.5t-11.5 -24q-12 -19 -20 -23.5t-15 -4t-16 0t-22 -12.5
q-4 -3 -6 -17t-2 -21q0 -14 12 -21.5t25 -7.5q20 0 20 14.5t-3 32.5l60 63h15zM300 467q3 0 3 3t-3 3q-3 1 -3 -3t3 -3zM347 153q6 4 10.5 9.5t4.5 12.5q-8 0 -13 -4.5t-9 -10.5zM441 136q0 8 -2.5 13t-11.5 5q-15 0 -36 -3t-31 -18q-8 -17 -4 -26.5t13 -14.5t21 -5.5
t20 0.5q5 0 10.5 6t10 14.5t7.5 16.5t3 12zM227 153h-7v-6h7v6zM127 87l-34 33q-1 -3 -1 -10q0 -13 10.5 -26t24.5 -13v16zM120 47l-7 -7l7 -7v14z" />
    <glyph glyph-name="cid337" unicode="&#xff6b;" horiz-adv-x="500" 
d="M353 582q13 0 20.5 -11.5t7.5 -22.5q0 -16 -7.5 -28t-7.5 -27q0 -13 11.5 -23t26 -20.5t26 -22.5t11.5 -30q0 -21 -8 -27.5t-20.5 -8.5t-26.5 -3t-26 -11v-90q0 -49 3.5 -97t3.5 -97q0 -19 -5 -41.5t-15.5 -42.5t-27 -33.5t-40.5 -13.5q-11 0 -18.5 6t-12.5 14.5t-10 18
t-11 16.5q-8 8 -19.5 20.5t-23.5 24t-21 20t-10 8.5h-6q-2 -2 -13.5 -12t-25.5 -20.5t-28.5 -19t-23.5 -8.5h-3q-5 4 -10 9t-5 13l9 -2l3 -3q0 -1 2 -3l1 -1h4q6 0 8 4.5t2 9.5q0 6 -2 10t-12 3q20 30 45 62.5t47.5 68t37.5 72.5t15 75q-18 0 -32 -9.5t-33 -9.5
q-18 0 -32 11.5t-23.5 28t-14 35t-4.5 33.5l1 33q2 5 5.5 6t8.5 1q7 0 16.5 -6.5t17.5 -16t13.5 -20t5.5 -17.5h16q0 26 11.5 32.5t28 7.5t34.5 4t30 22v27q0 30 -10.5 44.5t-23.5 22t-23.5 13t-10.5 17.5q0 10 11.5 17.5t26.5 11.5t30 6t22 2q29 0 42 -8t19 -18.5
t9.5 -20.5t13.5 -14v29zM340 313q2 11 6 25.5t14 21.5q3 0 10.5 1t16 2t16 2t10.5 2q5 1 13 5.5t8 10.5q0 10 -13 17t-21 7q-2 0 -12 -4.5t-22 -10.5t-22 -11.5t-11 -7.5q0 -3 -1 -10.5t-2 -16t-2 -16t-1 -10.5q-1 -2 -1 -7h14zM207 360h-14l14 -7v7zM133 333v-11t7 -9l1 14
q0 4 -0.5 11t-7.5 9v-14zM347 187q-2 5 -5.5 6t-8.5 1q-4 0 -6 -1q1 -1 6 -3.5t7 -2.5q1 -1 3 -1q3 0 4 1zM253 169q-6 0 -11.5 -6.5t-8.5 -9.5q-2 -3 -7.5 -10.5t-12.5 -16t-12.5 -16t-7.5 -10.5v-7l3.5 -3.5t3.5 -2.5h53v82zM200 133q-4 10 -9.5 12.5t-13.5 2.5
q-7 0 -10 -1q3 -2 13 -7t13 -7h7zM340 73q-1 1 -3 1q-3 0 -4 -1q-5 -2 -6 -6q1 -1 3 -1q3 0 3 1q6 2 7 6zM307 -39q-11 0 -16.5 -3t-5.5 -15q10 0 20.5 3t14.5 14z" />
    <glyph glyph-name="cid338" unicode="&#xff6c;" horiz-adv-x="500" 
d="M270 440q9 0 21.5 8t23.5 18.5t20 20t12 13.5q2 1 6 1q15 0 29.5 -10t26 -24.5t18.5 -31t6 -28.5q9 4 14.5 2t8.5 -6.5t4 -11t1 -12.5q0 -4 -9 -22t-23.5 -42.5t-32.5 -51.5t-36 -50t-34 -38t-26 -15q-2 9 -5 20.5t-8 19.5q-2 -2 -5 -7.5t-6 -12t-5.5 -12.5t-3.5 -8
q-2 -2 0 -6l2 -4h31q3 -19 8.5 -41.5t5.5 -41.5q0 -5 -1 -7q-12 -6 -26 -9.5t-26 -9t-20 -15t-8 -26.5t9 -31.5t18 -28.5h-10q-20 0 -31 16.5t-17 42.5t-8.5 57.5t-4 62t-3 56t-6.5 38.5q-2 6 -21.5 8t-41.5 13t-40 37t-18 79l1 30q1 2 6 7.5t7 5.5q6 2 11.5 -2t11 -9.5
t12 -10.5t14.5 -5t16.5 0.5t14.5 6.5l1 27q0 34 -11.5 63.5t-25.5 51t-26 33.5l-12 12q0 11 9.5 19t23 12.5t27 6.5t21.5 2q13 0 31.5 -3.5t35.5 -11t28.5 -19t11.5 -27.5q0 -18 -4 -33t-4 -33l1 -26q2 -5 7 -7h3zM143 540q11 0 19.5 7t20.5 7q11 0 20 -4t20 -4
q0 11 -6 18.5t-14.5 12.5t-18.5 7.5t-19 2.5h-11.5t-15 -1.5t-13 -5t-5.5 -10.5v-3q2 -4 9.5 -14t10.5 -13h3zM387 383q0 8 -5.5 9.5t-10.5 1.5h-14t-17.5 -1.5t-14.5 -5.5t-5 -11l3.5 -8t8 -17t10 -17t8.5 -8q2 0 3 1q4 16 6.5 22t5.5 9.5t8 7t14 14.5v3zM207 373
q-13 -6 -26 -9.5t-13 -20.5q11 0 25 4t14 20v6zM327 334q0 13 -10 13q-18 0 -28 -14.5t-10 -29.5q0 -8 0.5 -20.5t2.5 -25t6 -23t12 -14.5q7 3 12.5 18.5t8.5 34.5t4.5 36.5t1.5 24.5zM174 260q0 14 -14 14q-13 0 -24 -15.5t-11 -27.5q6 0 14.5 2t16 5.5t13 9t5.5 12.5z
M227 147h-7l-7 -3.5t-6 -3.5l-1 -17q0 -6 0.5 -14.5t10.5 -8.5h3q5 2 8 8.5t6 13.5l6 18zM320 -33q0 -1 -7.5 -9t-12.5 -11q-1 -1 -3 -1q-3 0 -4 1q-1 4 -5.5 13t-9 19t-8.5 19.5t-4 14.5q0 11 6 13t15 1.5t18 -0.5t15 6v-66z" />
    <glyph glyph-name="cid339" unicode="&#xff6d;" horiz-adv-x="500" 
d="M126 493q0 -19 12 -36t27 -34t28 -35.5t14 -40.5q8 6 17.5 17t9.5 22q0 35 -14 49t-30.5 20t-30 9.5t-13.5 18.5q0 3 1 4q8 -13 18.5 -13.5t22.5 -0.5q18 0 33.5 7.5t30 16.5t28.5 16.5t30 7.5q18 0 38.5 -10.5t38 -27t29 -36t11.5 -37.5q0 -21 -8.5 -46t-18.5 -52.5
t-18.5 -56.5t-8.5 -56q0 -14 14.5 -21t32.5 -17.5t32.5 -29.5t14.5 -55q0 -12 -1.5 -26t-18.5 -17q-10 0 -34.5 -1t-52.5 -2t-52.5 -2t-34.5 -1q-14 -1 -29 -6.5t-30 -11.5t-29.5 -11t-27.5 -5q-8 0 -19 4.5t-21 11.5t-17 16t-7 18v4q1 1 5 6.5t8.5 12.5t8.5 13t5 8l1 6
q0 10 -5.5 15.5t-15.5 11.5q-6 -2 -7.5 -7.5t-2.5 -12.5t-2.5 -12.5t-7.5 -7.5q-8 7 -7.5 21.5t0.5 21.5q0 3 -0.5 11.5t1 17t5 15.5t11.5 7q3 0 3 -1q1 0 5 -3t8.5 -6.5t8.5 -6.5t5 -4q2 -2 5.5 -4t6.5 -4q4 -3 8 -5h107q8 0 13 20t8 44.5t4 45.5t1 23q1 6 1 19t-1 28
t-1.5 28t-0.5 19h-11q-20 -13 -38.5 -24t-41.5 -11q-19 0 -33 15t-23 36t-13.5 43.5t-4.5 36.5l1 30q1 2 6 7l7 7h3q6 0 13 -3.5t7 -10.5h-17zM367 320q-10 15 -27 24.5t-33 15.5l-7 -60q0 -1 2.5 -3.5t4.5 -3.5h3q6 0 10 4t6 9.5t3.5 11t3.5 9.5h3q7 0 12 -3.5t12 -3.5h7z
M347 160q-4 -11 -11 -19.5t-13.5 -16t-11 -16.5t-4.5 -21q0 -6 4 -13.5t10 -13.5t13 -10t12 -4q9 0 18 6.5t15.5 15.5t10.5 19.5t4 18.5q0 1 -0.5 2.5t-0.5 2.5v2q0 2 -2 8t-4 12.5t-4 12t-3 7.5l-27 7h-6zM420 87v-7h7z" />
    <glyph glyph-name="cid340" unicode="&#xff6e;" horiz-adv-x="500" 
d="M360 333q-3 1 -10.5 2t-16 2t-16 2t-10.5 1q-7 2 -8.5 9.5t-2 16t-2.5 15t-10 6.5q-20 0 -36.5 -6.5t-32 -14t-31.5 -14t-34 -6.5q-23 0 -39 13.5t-26 33.5t-14.5 43t-4.5 41l1 36q1 6 5 7t8 1t7 -1q13 -12 21.5 -20t16.5 -12.5t18 -6.5t26 -2q23 0 47 7.5t47 16.5
t43.5 16.5t36.5 7.5t34.5 -9.5t34 -24.5t25.5 -33t10 -34q0 -17 -8 -30t-12 -29q-11 -51 -16 -103t-5 -104l1 -40q9 -14 21 -34.5t12 -38.5q0 -11 -6 -19.5t-14 -14.5h-51t-43.5 -1.5t-41 -4t-44.5 -7.5t-47 -16t-46 -11q-20 0 -37.5 13t-30 31.5t-20 40t-7.5 38.5
q16 0 32.5 3t28.5 14l7 -6h100l7 -14l26 -46q3 -1 10.5 -1.5t9.5 -0.5q5 0 21.5 5t34 12.5t31.5 16.5t14 18q0 2 -1 3q-1 4 -6 7h-4q-6 0 -11.5 -4.5t-12 -9.5t-13.5 -9.5t-16 -4.5q-16 0 -31.5 7t-25.5 21q7 10 13.5 15.5t11 11.5t7 14.5t2.5 25.5q0 13 -1.5 19.5
t-14.5 6.5q-14 0 -27.5 -4t-26.5 -9.5t-26.5 -9.5t-27.5 -4q-17 0 -32 10t-26.5 25t-18.5 32.5t-7 33.5l1 13l7 6q0 1 -3.5 7t-3.5 7v6q2 5 7 7h3q8 0 20 -8t17 -12l53 -1q27 0 52.5 4t51.5 4q2 0 8.5 -6t14.5 -13t17 -13.5t16 -7.5h3q12 0 23.5 8t20.5 19.5t15 24t6 22.5
q0 14 -4.5 16.5t-23.5 2.5q-6 0 -6.5 -4t-0.5 -9.5t-1 -9.5t-8 -4h-4zM193 387q0 -6 5.5 -7t8.5 -1q7 0 15.5 7t15.5 16.5t11.5 20t4.5 17.5q0 14 -14 14q-3 0 -10.5 -2t-15.5 -5t-14.5 -6.5t-6.5 -7.5v-46zM333 320q5 -2 7 -7q-5 -8 -13 -8v15h6zM167 200q1 1 3.5 6.5
t2.5 6.5q1 1 1 4q0 6 -4.5 12.5t-9.5 10.5l-7 -7zM100 120q-1 -1 -3 -1q-3 0 -4 1q-2 2 -10 9.5t-10 10.5q1 1 4 1q2 0 3 -1q3 -2 10.5 -9.5t9.5 -10.5z" />
    <glyph glyph-name="cid341" unicode="&#xff6f;" horiz-adv-x="500" 
d="M320 493q0 10 -6.5 14.5t-14 8t-14 8.5t-6.5 16q0 10 6 15.5t15 8t19 3t18 0.5q18 0 41.5 -5t34.5 -22q-11 0 -18 -17.5t-13.5 -43.5t-14.5 -56t-22 -56t-36 -43.5t-55 -17.5q-18 0 -29 13.5t-16.5 32.5t-7.5 39t-2 33q12 0 23.5 10t11.5 23q0 9 -11.5 12t-15.5 4
q-1 1 -4 1q-2 0 -3 -1q-2 0 -7 -2.5t-6 -3.5q-16 38 -16 80h29q1 0 11.5 -9t23.5 -22t25.5 -26.5t19.5 -22.5t10 -19t6.5 -19t8.5 -15t15 -6v85zM427 533q21 0 27.5 -15.5t6.5 -29.5q0 -33 -14 -86.5t-38.5 -114.5t-57.5 -122.5t-72 -111.5t-82 -81.5t-87 -31.5
q-8 0 -12.5 6.5t-4.5 13.5v7q66 76 119.5 153t87.5 173h7q3 -2 11.5 -7.5t18 -12t18 -12t12.5 -8.5q1 -1 6 -3.5t7 -2.5q-2 20 -2.5 33.5t2.5 24t11 20.5t22 22q-3 3 -8.5 7.5t-11 10.5t-9.5 12.5t-4 12.5q0 18 9.5 24.5t21 9.5t21 6.5t9.5 16.5q0 8 -4.5 12.5t-9.5 9
t-9.5 9.5t-4.5 14v9t1 14t2.5 12.5t3.5 5.5h7zM140 327q-5 -20 -15.5 -34.5t-17.5 -32.5q-12 16 -21 46t-15 63t-8.5 64.5t-2.5 50.5q0 17 17 17q7 0 10 -1q20 -18 40.5 -38.5t37 -43t26.5 -48.5t10 -55q0 -13 -2.5 -26.5t-8.5 -24.5t-16.5 -18t-26.5 -6q-8 1 -14.5 1
t-12.5 6q13 0 24.5 9t20.5 21.5t14.5 26t5.5 23.5h-45zM133 440q2 3 -6.5 3t-6.5 -3t7 -3t6 3zM280 340v-15q15 0 15 15h-15zM355 333q0 -8 -8 -13q-9 4 -9 13h17zM113 247q-5 0 -5 6.5t5 6.5t5 -6.5t-5 -6.5zM280 80q5 0 5 6.5t-5 6.5t-5 -6.5t5 -6.5z" />
    <glyph glyph-name="cid342" unicode="&#xff70;" horiz-adv-x="500" 
d="M27 467q25 -25 45 -36.5t54 -11.5q33 0 65.5 7.5t64.5 16.5t63.5 16.5t62.5 7.5q25 0 45.5 -10.5t35.5 -28t23 -40t8 -45.5q0 -16 -2.5 -29t-24.5 -21q-24 0 -52.5 -0.5t-58.5 -2t-59.5 -4t-56.5 -6.5q-17 -3 -32.5 -9t-31 -11.5t-31 -10t-32.5 -4.5q-3 0 -11 0.5t-9 1.5
l-6 6h20q0 1 -0.5 8.5t0.5 16.5t4 17.5t9 11.5h3q11 0 20 -3.5t20 -3.5h17q-11 16 -32.5 28t-45.5 21.5t-46.5 18t-35.5 19.5v-10q0 -19 11.5 -31t24.5 -23.5t21.5 -25.5t2.5 -37q-1 -1 -3 -1q-14 0 -27.5 15.5t-24.5 36.5t-18 42.5t-7 33.5v13l13 -7q1 1 1 4q0 2 -1 3
q-2 10 -4 17t-14 7q0 6 1 13t3.5 14t7.5 11.5t13 4.5h7zM313 380q16 0 22 10t6 23q0 8 -1.5 17.5t-12.5 9.5q-13 0 -27 -7q6 -4 13 -12.5t7 -17.5v-3q-1 -2 -6.5 -10t-6.5 -10h6z" />
    <glyph glyph-name="cid343" unicode="&#xff71;" horiz-adv-x="500" 
d="M280 656q0 5 -1.5 15t-4 20.5t-6.5 19t-8 9.5q12 4 28 13t33 18t32.5 16t26.5 7q17 0 37.5 -14.5t38 -35.5t28.5 -44t9 -40q-3 -26 -25.5 -48t-48 -42.5t-46 -42t-20.5 -46.5q0 -10 4 -17.5t4 -17.5q0 -18 -14 -63t-37 -101t-54 -116.5t-64.5 -110.5t-68.5 -82.5
t-67 -32.5h-3q-5 3 -10 8.5t-5 12.5l9 -1q1 0 6.5 -3t6.5 -4h7q5 3 6 7q-3 5 -11.5 8t-8.5 8q0 10 6 25.5t15.5 29.5t21 24t22.5 10q0 8 -2.5 11t-2.5 11q0 26 11 64t25 80.5t27 85t17 76.5q25 -3 47 4t47 10q1 2 1 6q0 11 -8.5 19.5t-18.5 8.5q-16 0 -34 -9t-34 -12
q-7 26 -18.5 39.5t-34.5 33.5q-1 3 -1 10q0 24 28 24h100q8 0 14 14.5t9.5 33.5t5 37t1.5 26q-30 0 -56 -13.5t-51 -29.5t-49.5 -29.5t-50.5 -13.5q-23 0 -40 20t-28 48t-16.5 57t-5.5 47v3q1 1 7 6.5t6 6.5q1 1 1 3q0 7 -4 9.5t-4 11.5q0 7 4 15t13 8q11 0 19.5 -9.5
t17.5 -21t20 -21t28 -9.5q24 0 48 4t49 4q17 0 26.5 -9.5t15.5 -21t11.5 -22.5t14.5 -14q6 2 7 6v3zM121 682q-12 0 -17 -4t-5 -15q0 -10 2.5 -16t11.5 -14q3 12 5.5 24.5t2.5 24.5zM437 647h-25t-34.5 -1.5t-31 -6t-13.5 -12.5q0 -5 1 -8.5t6 -5.5q16 3 27 1t20.5 -5
t19 -6.5t23.5 -3.5q6 0 14.5 2.5t17 7t14 10.5t5.5 14q0 4 -1 8t-7 6h-36zM128 613q0 9 -8 14v-14h8zM233 627l-26 -7q2 -8 12.5 -8.5t13.5 -0.5v16zM305 373q0 -12 1 -27t7 -26q4 8 9.5 24.5t5.5 28.5h-23zM221 107q0 10 -7.5 12.5t-16.5 2.5q0 -20 16 -29q6 2 7 5.5t1 8.5
z" />
    <glyph glyph-name="cid344" unicode="&#xff72;" horiz-adv-x="500" 
d="M-7 180q27 33 61.5 72.5t70 83.5t69.5 90.5t61 94t43 94.5t16 92q0 9 -6.5 19.5t-15 20t-16 17l-9.5 9.5q-1 3 -1 7q0 12 14 20l40 1q23 0 52 -8t54.5 -23t43 -37t17.5 -50q0 -7 -8 -23t-20 -37t-27 -44t-28 -43t-23.5 -35.5t-13.5 -20.5q-1 -2 -1 -7q0 -8 3.5 -15.5
t7.5 -15t7.5 -15.5t3.5 -17l-1 -17q-2 6 -5.5 11.5t-8.5 8.5q2 -11 -0.5 -16.5t-7.5 -8t-11 -2.5h-11h-19t-17 7v-46q4 9 8 11.5t11 2.5q9 0 15.5 -4t15.5 -4q7 0 12 1t11 6v-393q0 -10 -6 -16.5t-14.5 -10.5t-18 -5.5t-15.5 -1.5q-10 0 -23 3t-24.5 9.5t-19.5 16t-8 21.5
q18 0 25.5 -6.5t12.5 -15t11.5 -15t22.5 -6.5q23 0 37 19.5t14 40.5q0 4 -1 7q-21 8 -30.5 17t-9.5 30q0 10 2.5 17.5t5 14t5 14.5t2.5 19q-26 0 -39.5 -11t-23 -26.5t-19 -32.5t-26.5 -29q-7 7 -7 16v17q0 55 10.5 108.5t10.5 108.5l-1 43q-2 6 -6 7h-7q-1 0 -6.5 -3
t-6.5 -4h-4q-1 0 -9 7.5t-17.5 17.5t-18 18.5t-11.5 10.5h-4q-10 0 -19 -13t-16 -31t-11 -36t-4 -27t2 -14.5t12 -5.5t16 10t10.5 22t10.5 22.5t16 12.5q3 0 13.5 -2.5t13.5 -4.5q-15 -15 -38 -39t-49.5 -46.5t-54 -39t-51.5 -16.5q-9 0 -15 2t-6 12v7zM400 593
q0 2 -3.5 10.5t-3.5 9.5q0 2 2.5 7.5t4.5 6.5q10 -5 23 -2t24.5 11t19 19t7.5 22q0 7 -8 8.5t-13 1.5q-18 0 -30.5 -5.5t-24 -12.5t-25 -12t-33.5 -4v-3q0 -7 3 -21t8.5 -28t13.5 -24.5t19 -10.5q10 0 13 5.5t3 15.5v6zM300 420h-8q0 -4 1 -7l7 -13v20zM281 322q-5 0 -10 -3
t-5 -9q0 -3 1 -3q2 -6 6 -7q8 11 8 22zM307 247q-4 5 -10.5 9t-13.5 4q-8 0 -9.5 -11.5t-1.5 -16.5l8 1q3 2 13.5 7t13.5 7zM360 160q0 4 -0.5 8t-6.5 5q-6 -1 -6.5 -6.5t-0.5 -9.5q0 -5 0.5 -10t6.5 -7q5 6 6 10t1 10zM283 118q0 15 -16 15q-2 0 -4.5 -2.5t-2.5 -3.5
q2 -7 10 -8t13 -1z" />
    <glyph glyph-name="cid345" unicode="&#xff73;" horiz-adv-x="500" 
d="M447 487l3 5t7 12.5t8.5 15.5t7.5 13q5 9 6 11t1 9q0 12 -5.5 17t-12 8.5t-12 8.5t-5.5 16q0 2 0.5 8.5t1.5 8.5q16 -12 28 -29t12 -38q0 -11 -3.5 -19.5t-8 -17t-9 -17.5t-6.5 -19q-15 -77 -33.5 -152t-49 -143.5t-77.5 -127.5t-120 -104l-67 -33q-3 -2 -11 -4.5
t-9 -2.5l-6 6t-7 8v3l7.5 10.5t19.5 26t26 34t26.5 35.5t22 29t11.5 15l8 8t6 5q1 1 6.5 -2.5t6.5 -3.5q2 -1 12 0.5t12 1.5q0 5 -1 10.5t-0.5 10t4 7.5t12.5 3q10 0 18 -3.5t17 -3.5q10 0 18.5 6.5t14.5 13.5q-1 3 -0.5 11t1.5 16.5t2.5 16t2.5 10.5l27 26q0 1 0.5 3t0.5 4
q0 7 -5.5 12t-13.5 8.5t-16 5t-13 1.5l-7.5 -9t-17 -19.5t-19.5 -20t-16 -11.5v6l47 127q9 -3 14.5 5t9.5 20t7.5 24t8.5 18h-7l-13 -14l-8 -2v32.5t4 25t14 17t30 7.5q2 4 2 7q0 10 -6 10t-16 3q-2 1 -4.5 2.5t-5.5 2.5q-4 1 -7 2v45q-4 1 -11 1q-5 1 -10 1h-9
q-5 -1 -22 -4t-36 -7.5t-33.5 -11.5t-14.5 -17v-254q0 -23 -15.5 -28.5t-31.5 -5.5q-31 0 -48 16t-24.5 39.5t-9 50.5t-1.5 48h14q0 4 1.5 6t2 3t-2.5 2t-12 3v146q16 6 18.5 16.5t2.5 23.5q0 20 -4 33.5t-17 33.5q-7 -17 -7.5 -37t0.5 -36q-5 3 -13 13.5t-15.5 23.5
t-12.5 26.5t-5 22.5q0 2 2.5 4.5t3.5 2.5l24 1q17 0 33 -6.5t31.5 -14.5t30.5 -14.5t31 -6.5q7 0 10 1q5 19 6 29.5t1 27.5q0 21 -3.5 43t-16.5 40q5 2 11 5t9 8l-13 14q-1 -4 -9 -11.5t-11 -8.5q-5 -2 -12 1t-14 7.5t-13 9.5t-8 8v3q0 13 10.5 21t25 11.5t29 4.5t23.5 1
q19 0 43 -4t45.5 -13.5t36 -25t14.5 -38.5q0 -36 -13.5 -66t-30.5 -52q-19 -26 -43 -45v-3q2 -5 7 -7h3q20 0 37.5 10t37.5 10q18 0 33.5 -1.5t34.5 -5.5q10 -4 12 -9.5t2 -13.5q0 -17 -9 -31.5t-11 -31.5h60zM253 713q5 0 5 7t-5 7t-5 -7t5 -7zM373 620q1 2 4 10t3 10
q0 3 -5.5 10.5t-7.5 9.5l16 1q19 0 32 -10t25 -24q-11 2 -12.5 -4t-1.5 -12l1 -11q0 -1 3 -6.5t3 -6.5q0 -2 -2.5 -4.5t-3.5 -2.5q-6 0 -15 3.5t-17.5 9t-15 12t-6.5 11.5v4zM48 627q0 -7 5 -7t5 6.5t-5 6.5h-1q0 7 -5 7t-5 -6.5t5 -6.5h1zM52 633q-4 0 -4 -6q4 0 4 6z
M333 600l-3.5 7t-2.5 6q0 3 3.5 5t7.5 3t7.5 1h3.5q0 -6 -2 -14t-11 -8h-3zM380 400l1 -10q17 0 26 17q-4 7 -13.5 10t-16.5 3h-4zM160 213q5 0 5 7t-5 7t-5 -7t5 -7zM293 140v7h7v-7h-7z" />
    <glyph glyph-name="cid346" unicode="&#xff74;" horiz-adv-x="500" 
d="M187 407q0 2 -1 12.5t-3 23t-6 23.5t-10 14q-67 2 -104 38t-37 106q0 6 0.5 14.5t10.5 8.5q12 0 23 -6.5t22 -14t23.5 -14t27.5 -6.5q30 0 59 9.5t57.5 21t56.5 21t56 9.5q15 0 32.5 -6t32 -16.5t24 -25.5t9.5 -32q0 -25 -20 -36t-43.5 -17.5t-43.5 -12.5t-20 -20
q0 -12 4 -22.5t4 -22.5q0 -23 -5 -49t-11 -54.5t-11 -59t-5 -62.5q13 0 24 3.5t21.5 8t21.5 8t24 3.5q15 0 31.5 -9t30.5 -23t23 -30.5t9 -31.5q0 -4 -1 -7q-14 4 -18.5 14t-7.5 20.5t-7.5 18.5t-17.5 8q-12 0 -17 -9t-5 -22q0 -9 3.5 -16.5t3.5 -18.5q0 -9 -4 -13.5
t-9.5 -7.5t-9.5 -6.5t-4 -10.5q0 -8 6.5 -11.5t15.5 -4.5t18 -1h14q21 0 29.5 10.5t16.5 29.5q1 -2 1 -6q0 -23 -17 -35t-37 -12h-220q1 3 3.5 13.5t2.5 13.5q1 1 1 3q0 3 -1 3q0 2 -6 10.5t-7 9.5q-1 2 -3.5 10.5t-3.5 9.5q0 1 -3 1q-8 0 -13.5 -19t-16.5 -41.5
t-31.5 -41.5t-57.5 -19q-14 0 -30 10.5t-29.5 25.5t-22.5 32.5t-9 31.5v107q0 2 5 4.5t8 2.5q10 0 17 -7.5t13.5 -16t13.5 -16t16 -7.5h100q1 0 3.5 2.5t3.5 4.5l7 20v180zM313 627q-2 4 -6 6q-1 1 -4 1q-2 0 -3 -1v-6h13zM240 523q0 7 -7 17t-17 19t-21 15t-18 6
q-10 0 -14 -8t-4 -15t1 -10q12 -24 21 -29t27 -5q2 0 7.5 -0.5t11 0.5t9.5 3t4 7zM233 320q10 6 15.5 11.5t5.5 15.5q0 4 -1 6q-10 -1 -15 -9t-5 -17v-7zM267 240q0 11 -4.5 12.5t-11.5 1.5q-14 0 -25.5 -4t-25.5 -10q-1 -2 -1 -7q0 -13 14 -13q5 0 14 1t18 3t15.5 6t6.5 10
zM340 213q-2 1 -7 1q-15 0 -15 -18q8 0 15.5 4t6.5 13z" />
    <glyph glyph-name="cid347" unicode="&#xff75;" horiz-adv-x="500" 
d="M33 593q19 -16 32.5 -28t36.5 -12q12 0 39.5 1.5t55 7t49 16.5t21.5 31q0 45 -7 71t-17.5 38.5t-22.5 16t-22.5 4.5t-17.5 3.5t-7 13.5q0 15 13.5 25t31.5 16t36.5 8t27.5 2q17 0 41 -4.5t45.5 -14t37 -25t15.5 -37.5q0 -10 -3.5 -18t-7.5 -16t-7.5 -16.5t-3.5 -17.5
q0 -21 16 -32.5t34.5 -22t34.5 -24.5t16 -39q0 -26 -13 -35.5t-31 -12.5t-37.5 -5.5t-31.5 -13.5l-1 -120q0 -63 4 -125.5t4 -126.5q0 -24 -4.5 -53.5t-16 -55t-31.5 -42.5t-51 -17q-2 0 -14 12.5t-29 31t-36 40.5t-35 41.5t-26.5 33t-10.5 15.5q-27 -16 -50 -36.5
t-50 -37.5q1 9 -0.5 11.5t-4.5 2.5t-6.5 -2t-6.5 -2q0 -6 -2 -9.5t7 -6.5q-2 -6 -6 -7t-8 -1q-6 0 -12 3t-8 11q0 1 9.5 15.5t24 36t32 47t33 49t27 41.5t14.5 25q15 26 26 59t26.5 61t39 46t62.5 14q4 4 6 13t2.5 18t0.5 17v10q9 0 13 -4t6.5 -8.5t5 -8.5t9.5 -4
q10 0 10.5 9t0.5 15q0 7 -1.5 17.5t-5 20.5t-9 17.5t-14.5 7.5q-17 0 -48 -12.5t-61.5 -29.5t-53 -36t-22.5 -32q0 -5 0.5 -10t6.5 -7q-6 -6 -12.5 -6.5t-13.5 -0.5q-21 0 -38.5 13t-29.5 32t-19 41t-7 41v11.5t1 17.5t2 16.5t4 7.5h13zM233 787q-5 -3 -6 -7h6q5 2 7 7h-7z
M380 707q-1 4 -7 6q0 1 -3 1t-3 -1q-2 0 -5 -3q-1 -2 -2 -3q0 -2 2.5 -7t4.5 -7h6q6 4 7 7v7zM238 467q0 5 2 12.5t10 7.5t10 -7.5t2 -12.5h-24zM221 453q0 -4 -1 -6l-7 -14q-2 6 -5 11.5t-8 8.5h21zM267 248q-10 0 -20 -9t-19.5 -21.5t-18.5 -25t-16 -19.5v7q1 1 2 6
t2 10.5t2 10.5t1 6v7q-1 3 -3 10.5t-4.5 16t-4 16t-1.5 10.5q-1 1 -4 1q-2 0 -3 -1q-2 -1 -7 -6t-6 -7q-1 -1 -1 -3q0 -6 3.5 -9.5l7 -7t7 -8t3.5 -10.5q0 -15 -4 -29.5t-22 -14.5q0 -9 9 -14t17 -4q-2 -2 -6 -6.5t-8.5 -10t-8 -10t-4.5 -6.5v-7q4 0 15.5 -1t24.5 -2
t24.5 -2t15.5 -2h8q5 0 12 2t7 12v121zM380 133q-1 3 -5.5 -1t-1.5 -5q3 -2 5.5 0.5t1.5 5.5zM73 113q-1 1 -3 1q-3 0 -3 -1q-7 -4 -14 -12.5t-7 -17.5q0 -2 1 -3zM269 100q0 -7 4.5 -13.5t13.5 -6.5q6 0 7 9t1 11h-26zM320 33q15 6 31 7.5t32 1.5q0 8 -5.5 20t-14.5 12
q-2 0 -3 -1q-1 0 -5 -3.5t-9.5 -8t-10.5 -8.5t-8 -6q-4 -2 -5 -4t-2 -3v-7z" />
    <glyph glyph-name="cid348" unicode="&#xff76;" horiz-adv-x="500" 
d="M327 693q-1 1 -7 4t-7 3t-6.5 -6.5t-6.5 -6.5q-2 -1 -9 1.5t-9 2.5v-15t2 -26t7 -21.5t16 -1.5q0 -3 2.5 -16.5t10.5 -17.5q11 8 19 13.5t15 8.5t14.5 4.5t17.5 1.5q9 0 18.5 -2.5t15.5 -11.5q-1 -1 -3 -1q-8 0 -15 4t-15 4q-18 0 -27 -14q23 -10 29 -22t6 -31
q0 -14 -6.5 -22t-14.5 -14t-14.5 -12.5t-6.5 -18.5q0 -13 3.5 -16.5t16.5 -3.5q6 0 19 1.5t26 4t23.5 6t11.5 8.5q-1 20 -0.5 43t7.5 44q15 -12 24.5 -29t9.5 -36q0 -11 -5 -20.5t-11 -19t-11.5 -20t-6.5 -22.5q-1 -6 -3 -31.5t-4.5 -55t-4 -55t-1.5 -31.5q-1 -8 -4 -30
t-8.5 -50t-12 -59t-15 -56.5t-18 -42t-19.5 -16.5q-9 0 -12.5 7t-13.5 7q-7 0 -12.5 -1t-11.5 -6l27 -27q-5 -10 -18 -11.5t-23 -1.5q-18 0 -29.5 12.5t-19 31t-13.5 40t-12 40t-14 31t-21 12.5q-11 0 -24 -14.5t-27.5 -35.5t-31 -46.5t-35 -46.5t-39 -35.5t-42.5 -14.5
q0 31 11 66.5t27.5 74t36 80t36 83t27.5 83.5t11 83v3q-3 5 -7 6q-1 1 -3 1q-7 0 -12.5 -3.5t-10.5 -7.5t-10.5 -7.5t-13.5 -3.5q-11 0 -25 5.5t-14 20.5q12 0 21 10t9 21q0 18 -17 24.5t-34 6.5h-3l-14 -7q-7 16 -7 32v32q0 4 -0.5 15t1 22t6 19t14.5 7h6q18 -22 37.5 -38
t48.5 -16q24 0 36 8t16 21.5t3.5 32t-0.5 39.5l-1 60q-5 9 -17.5 13t-25 7t-22 8.5t-9.5 17.5q0 13 13 22t30.5 14.5t35 8t26.5 2.5q19 0 42.5 -8.5t44.5 -23.5t35 -34.5t14 -41.5zM433 600q5 0 5 -6.5t-5 -6.5t-5 6h-1q-5 0 -5 7t5 7t5 -7h1zM213 533q0 6 -5 6.5t-8 0.5
q-5 0 -9.5 -2t-4.5 -8t4.5 -8.5t10.5 -2.5q5 0 8.5 2.5t3.5 11.5zM213 170q0 -17 18 -21.5t39 -6t39 -4.5t18 -17q0 -9 -6 -13.5t-14 -7.5q1 -5 5 -6t8 -1q15 0 18 11t3 21q0 13 -1 18.5t-4.5 7t-10 1t-17.5 -0.5q0 39 5 78t11 78.5t11 79t5 78.5q0 9 -1 15.5t-12 6.5
q-10 0 -22 -3.5t-12 -16.5q-1 -8 -5 -27t-8 -40t-8 -40t-5 -27q-2 -6 -4 -19t-5 -26.5t-7.5 -24t-10.5 -10.5q-2 0 -10 3.5t-10 3.5h-53q-8 1 -8 10.5v12.5q0 22 9.5 30.5t31.5 8.5v11h-47q-2 -6 -5 -10q-2 -5 -4.5 -9t-3.5 -7q-1 -2 -3 -7.5t-4.5 -12t-4 -12.5t-1.5 -8
q-1 -1 -1 -4t1 -3q2 -3 7 -8t6 -5l93 -14q1 0 1 -2q0 -3 -1 -4q0 -2 -3 -10t-6.5 -17t-6.5 -17t-4 -10v-3zM160 170q0 10 -5 21t-17 11q0 -14 5.5 -29.5t9.5 -25.5q6 6 6.5 11t0.5 12zM128 105q-39 0 -63.5 -20t-24.5 -65q0 -5 5.5 -6t8.5 -1q4 0 16 12t25 28t23 31t10 21z
" />
    <glyph glyph-name="cid349" unicode="&#xff77;" horiz-adv-x="500" 
d="M320 400q0 -6 7 -6.5t10 -0.5q11 0 20 4.5t18 9.5t18 9.5t20 4.5q18 0 34 -7.5t28 -19.5t19 -28t7 -33q0 -21 -12 -31t-30 -14.5t-38.5 -6t-38.5 -5t-30 -11t-12 -24.5q0 -28 4 -56t9.5 -56t9.5 -56t4 -56q0 -35 -16.5 -59.5t-53.5 -24.5q-21 0 -33.5 7.5t-21 19.5
t-14 27.5t-11.5 32.5v173q0 9 -5.5 12t-11.5 3q-4 0 -7 -1q-23 -16 -39.5 -25.5t-39.5 -9.5q-27 0 -47 14.5t-33.5 36t-20.5 47t-7 47.5v10t0.5 12t3.5 10.5t9 4.5q12 0 20.5 -5.5t16.5 -11.5t17 -11.5t23 -5.5q15 0 30.5 5.5t30.5 11.5t28.5 11.5t24.5 5.5q10 0 14 -8
t4 -16q0 -11 -10 -20.5t-21 -9.5h-4q-3 1 -13 6.5t-13 6.5q-1 -2 -1 -6q0 -48 27 -87q3 -1 7 -1q9 0 15.5 5.5t12.5 12t12.5 12t15.5 5.5q3 0 4 -1q2 0 13.5 -3t13.5 -3l7 -1q8 0 15.5 6.5t15 15.5t14.5 18t14 14q1 0 1 3q0 1 -20 16t-46 32t-51.5 30.5t-36.5 11.5
q-1 3 -2.5 8.5t-3.5 12t-4 12t-3 7.5l-7 7h-3q-15 0 -28 -7t-30 -7t-25 5.5t-8 23.5q0 20 11 36t33 16q9 0 17.5 -3t17.5 -3q0 13 -7 25.5t-18 20.5q-21 -5 -35 -3t-26 6.5t-24.5 9t-30.5 4.5q0 -4 1 -9.5t1 -10.5t-3 -8.5t-10 -3.5v48q0 1 5.5 6t8.5 7q0 1 3 1
q11 0 20.5 -5.5t19 -12t20 -12t23.5 -5.5q16 0 33 6.5t30.5 18.5t22 28t8.5 35q0 2 -2.5 4.5t-4.5 1.5l-27 -13q-4 6 -7.5 16.5t-5.5 21t-4 19t-3 10.5q-3 10 -15 14t-25 7.5t-23.5 9t-10.5 19.5q0 15 15.5 23.5t36.5 13t41.5 6t31.5 1.5q14 0 35 -4t40.5 -13t33.5 -22.5
t14 -31.5q0 -26 -9 -51.5t-9 -54.5q10 0 19 3.5t17 8t16.5 8t18.5 3.5q17 0 34 -5t30.5 -14.5t21.5 -24t8 -32.5q0 -27 -24 -41.5t-53 -22.5t-53 -13t-24 -14v-80zM257 735q-12 0 -22.5 -0.5t-19 -4t-13 -11t-4.5 -21.5q3 0 12.5 4.5t20 10.5t18.5 12t8 10zM307 600
q-3 -1 -7 -0.5t-8 0.5t-7.5 -1t-4.5 -6q34 0 52 -4.5t41 -21.5q4 13 5.5 22.5t1.5 21.5q0 16 -17 16h-3zM60 447q-5 0 -5 6.5t5 6.5t5 -6.5t-5 -6.5zM73 447q0 -3 -3 -3t-3 3q-1 3 3 3t3 -3zM100 260q5 0 5 6.5t-5 6.5t-5 -6.5t5 -6.5zM347 87q0 3 -6 10t-14 14.5
t-17.5 13.5t-16.5 8q0 1 -3 1q-2 0 -3 -1q-1 -8 4.5 -22t15 -27.5t20.5 -23t20 -9.5v36z" />
    <glyph glyph-name="cid350" unicode="&#xff78;" horiz-adv-x="500" 
d="M37 280q-11 0 -11 -13q0 -9 3 -14.5t11 -12.5q-2 -6 -7 -6.5t-10 -0.5q-17 0 -17 17q0 11 5.5 25.5t13.5 29.5t15.5 29.5t12.5 25.5q32 78 56.5 161.5t24.5 168.5l-1 43q-4 6 -11 10t-13.5 8.5t-11 10.5t-4.5 15q0 8 9 13t20 7.5t22 3t16 0.5q14 0 39 -5t49 -15t41.5 -25
t17.5 -34q0 -13 -5.5 -24t-11.5 -21.5t-11.5 -21t-5.5 -22.5q0 -5 5 -6t8 -1q16 0 29 7.5t25.5 16.5t24.5 16.5t25 7.5q17 0 34.5 -13t31.5 -31.5t22.5 -39t8.5 -36.5q0 -13 -11.5 -46.5t-29.5 -76.5t-39 -90t-40 -86t-33 -64t-17 -25q-6 0 -8.5 3.5t-4.5 7.5t-5.5 7.5
t-10.5 3.5q-6 0 -14 -1.5t-8 -10.5q0 -3 5.5 -5t12 -5t12 -7t5.5 -12t-6 -17t-14 -17.5t-16 -15.5t-12 -10l-13 20q-15 -20 -26 -37t-25 -29t-33 -19t-49 -7v-22q5 5 9 6t11 1q17 0 26 -13q-6 -9 -20 -19.5t-30.5 -20t-32.5 -15.5t-26 -6q-8 0 -13 2.5t-5 11.5q0 10 17.5 34
t40.5 52t45 54t31 40q28 43 55 93.5t48.5 103.5t35 107.5t13.5 106.5q-35 0 -61.5 -20t-47.5 -50.5t-38 -65.5t-33 -65.5t-32.5 -50.5t-36.5 -20q-2 0 -3 1q-2 1 -10 10t-10 10h-3zM233 757q0 10 -8 13.5t-15 3.5q-11 0 -14 -6t-3 -16q0 -7 4.5 -9.5t9.5 -4t9.5 -4.5
t4.5 -12q0 -20 -8.5 -35.5t-8.5 -35.5q8 0 13 4.5t10 11.5q0 5 1 17t2 26t2 26t1 17v4zM440 486q0 10 -3.5 18.5t-3.5 18.5q0 12 3.5 22t3.5 22q0 8 -0.5 14t-6.5 12q-9 -18 -16.5 -22.5t-21.5 -4.5q-26 0 -32 15t-3 39q-12 -8 -19.5 -22t-7.5 -28q0 -5 0.5 -10t6.5 -7
q22 -9 35.5 -23t22 -26.5t14 -21.5t11.5 -9q8 0 12.5 2.5t4.5 10.5zM154 453q0 6 -4 14t-10 16.5t-11.5 16t-8.5 13.5q-6 -6 -6.5 -12.5t-0.5 -14.5q0 -5 1 -13t4 -15.5t7.5 -12.5t11.5 -5t12 3t5 10zM200 127h-7l7 -7v7zM233 113q5 0 5 7t-5 7t-5 -7t5 -7z" />
    <glyph glyph-name="cid351" unicode="&#xff79;" horiz-adv-x="500" 
d="M397 640q19 0 37 -8t31 -21.5t21 -31t8 -36.5v-11t-1 -12q-9 -13 -30 -19t-42.5 -9.5t-38 -6t-16.5 -8.5q0 -3 1 -4q22 -14 28.5 -26t6.5 -33q0 -25 -17 -71.5t-45 -101.5t-64.5 -112t-75 -103.5t-76 -76t-68.5 -29.5h-3l-13 13v4q0 9 7 17.5t16.5 17t18 17t11.5 18.5
q1 3 4 8.5t6 11.5t7 10t7 4q5 0 8.5 -3.5l7 -7t8 -7t12.5 -3.5t14.5 6.5t6.5 13.5q0 9 -4 16t-4 17q0 9 4.5 15t9.5 11t9.5 9t4.5 9q0 2 -1 3q-1 2 -10 10t-10 10v13l40 120q6 19 20.5 26.5t32.5 10.5t37 3.5t35 6t26 18.5t10 40q0 9 -13.5 20t-31 22t-34 21.5t-22.5 18.5
q1 -17 -2 -27t-7 -18t-7.5 -15.5t-3.5 -19.5v-7l27 -33q1 -1 1 -3q0 -8 -7 -13t-14 -5l-7 1q-4 2 -12 7t-8 6v100q0 7 -4 10t-9 4t-10.5 0.5t-8.5 -0.5q-17 0 -32.5 -15t-29.5 -37t-27.5 -48.5t-28 -48.5t-31 -37t-35.5 -15q-12 0 -15 5.5t-3 15.5l1 13q19 30 30 65t20 70
t19.5 69t30.5 63v-23q1 0 3.5 -2.5t3.5 -1.5q1 2 3.5 10t2.5 10v200q0 7 -8 12t-17 10t-16 10.5t-5 14.5t12 14.5t22 8.5t24 3.5t19 0.5q15 0 39.5 -6.5t47.5 -17.5t40 -27t17 -35q0 -18 -6.5 -34.5t-14 -33.5t-13.5 -34.5t-6 -36.5q25 0 40 2t29 8t30.5 16t45.5 25h4z
M195 731q0 20 -13.5 25t-30.5 5q0 -19 14 -24.5t30 -5.5zM475 520q0 9 -5.5 11.5t-12.5 2.5t-13 -2.5t-6 -11.5h37zM267 473q-2 3 -10 10.5t-10 9.5q-1 -2 -1 -6q0 -9 6.5 -13.5t14.5 -6.5v6zM322 373q0 -4 -1.5 -11t-7.5 -9q-6 2 -7 9t-1 11h17z" />
    <glyph glyph-name="cid352" unicode="&#xff7a;" horiz-adv-x="500" 
d="M167 587q-25 0 -46.5 -5.5t-47.5 -8.5q4 -11 14 -12.5t20.5 -1t18.5 -2t8 -16.5q0 -10 -5.5 -16.5t-13.5 -10.5t-16.5 -6t-15.5 -2q-14 0 -22.5 17t-13 38.5t-6.5 41.5t-2 27l1 37q0 14 13 14q5 0 7 -1q5 -5 13 -12t17 -14.5t18.5 -15t18.5 -11.5l33 -1q46 0 91.5 11.5
t81.5 42.5q3 1 10 1q16 0 38.5 -12t43 -29.5t35 -38t14.5 -38.5q0 -11 -7 -34.5t-15.5 -50t-16 -50t-8.5 -35.5l-7 -6q-6 -7 -14.5 -1t-16 16.5t-12.5 22t-5 15.5l1 20q3 3 10 10.5t14.5 16t14 16t8.5 10.5q2 2 4.5 7.5t2.5 6.5v80q0 1 -8 8.5t-12 11.5h-7q-2 -1 -4.5 -3.5
t-2.5 -3.5q0 -2 3.5 -10t3.5 -10l1 -17q0 -11 -5 -24.5t-13.5 -25t-19 -19.5t-22.5 -8q-10 0 -16.5 4t-14.5 4q-11 0 -11 -10.5v-16.5q0 -21 11.5 -36t26 -29t26 -28.5t11.5 -33.5q0 -16 -9.5 -22.5t-21 -10.5t-21 -9t-9.5 -18q0 -7 4.5 -14t12.5 -7q9 0 19 8t20 18.5
t19.5 20.5t18.5 14l8 2q0 -30 -4.5 -59.5t-4.5 -59.5q0 -7 1 -10q19 -23 36.5 -46.5t17.5 -55.5q0 -12 -2 -27t-19 -17q-10 0 -35.5 -1t-54.5 -2t-54.5 -2t-35.5 -2q-17 -2 -34 -8t-33.5 -13.5t-33 -13t-33.5 -5.5q-8 0 -13 2t-13 8h33q0 1 -2.5 5t-3.5 5q-2 2 -7.5 7
t-12.5 10.5t-12.5 10t-7.5 5.5q-4 2 -7 2q-16 0 -13 -22q-15 11 -24 26.5t-14.5 33t-7.5 36t-2 34.5l1 44q2 5 5.5 6t7.5 1q5 0 7 -1q3 -2 10.5 -9t16 -14.5t16 -14t10.5 -8.5q2 -1 7 -4t7 -3l43 -1q12 0 31 -0.5t37.5 2t34 10t20.5 22.5q1 13 3 45.5t4 68.5t4 68t3 45
q0 4 -0.5 14.5t-0.5 22t-0.5 22t-0.5 14.5h-32l-100 -46h-26q4 2 10.5 9.5t13.5 17.5t14.5 19t14.5 14q20 14 20 36v4l-7 20h-26zM117 473q-15 0 -24 14h7q12 0 20 -14h-3zM55 196q0 18 -15 18q-4 0 -7 -1q0 -9 7.5 -13t14.5 -4zM140 160q4 -10 7 -17t7 -11t10.5 -6t17.5 -2
q0 16 -11 26t-28 10h-3z" />
    <glyph glyph-name="cid353" unicode="&#xff7b;" horiz-adv-x="500" 
d="M307 800q11 -3 29 -8.5t35.5 -14t30 -20t12.5 -26.5q0 -23 -7.5 -43.5t-7.5 -44.5l1 -30q9 -14 25.5 -22.5t33 -17.5t29 -21.5t12.5 -34.5q0 -26 -14.5 -34.5t-32.5 -10.5t-34 -4t-19 -15q-5 -71 -11 -131.5t-22.5 -114t-47.5 -102.5t-86 -98q-14 -13 -33.5 -28
t-41.5 -28.5t-45 -22.5t-44 -9q-7 0 -11.5 2t-4.5 12q0 2 2.5 7t4.5 7l100 100v-65q7 0 12 4.5t9.5 10t10 10.5t15.5 6l13 40q0 2 -1 7t-1 6l-5 1l-40 -7v7l47 73q3 4 14.5 6.5t24 4t23 2t11.5 0.5q-3 6 -10.5 13t-15.5 14t-14.5 13t-6.5 9q0 50 10.5 100t10.5 101v37
q-2 6 -5.5 6.5t-7.5 0.5q-3 0 -9 -1t-12.5 -2.5t-11 -4t-4.5 -6.5v-213q0 -10 -5.5 -17.5t-14 -13t-18 -8t-16.5 -2.5q-24 0 -43.5 19.5t-19.5 44.5v4q8 -9 14.5 -11.5t15.5 -2.5q6 0 14.5 2t8.5 12v73q-9 0 -13 4.5t-6.5 9.5t-6 9.5t-12.5 4.5q0 -3 6 -8.5t6 -12.5
q0 -13 -13.5 -27.5t-20.5 -26.5v24q0 20 3.5 40t3.5 40q0 1 -11 7t-25 13.5t-27 15.5t-17 14q-8 11 -16.5 31t-10.5 35q3 1 10 1q15 0 28.5 -5.5t26.5 -11.5t26.5 -11.5t29.5 -5.5q18 0 34.5 7t36.5 7q31 0 60 -12t42 -42q1 0 3.5 2.5t2.5 4.5q0 1 -3 9.5t-3 10.5l-1 10
q0 17 13 30t31 13q11 0 19.5 -7t20.5 -7q4 0 9.5 0.5t7.5 6.5q-14 7 -17.5 12.5t-3.5 16.5q0 10 4 18t4 17q0 8 -7 12.5t-14 4.5q-4 0 -6 -1q-1 -7 -1.5 -16.5t-2.5 -17.5t-7 -14t-14 -6q-16 0 -28.5 5.5t-23.5 12.5t-22.5 12.5t-25.5 5.5q-13 0 -21 -9t-16 -19.5t-18.5 -19
t-28.5 -8.5q-10 0 -16.5 4.5t-12 9.5t-11.5 9.5t-14 4.5q-21 0 -44 -10.5t-47 -10.5v54q0 8 7.5 11t12.5 3t7 -1l7 -7t11.5 -10.5t12.5 -10t9 -5.5t8 0t11 3t11 3.5t7 1.5q0 26 2.5 48.5t-1 40.5t-16 31t-42.5 19q-1 3 -1 10q0 12 8 20.5t19 13.5t24 7.5t22 2.5
q16 0 37.5 -4t40 -13t31.5 -23t13 -34q0 -26 -5.5 -49t-5.5 -49q1 0 8.5 -0.5t16 0t15.5 3t7 8.5v100q4 -3 11.5 -13t15.5 -20.5t15.5 -18.5t10.5 -8q12 0 18 11t9 25.5t3.5 29t0.5 21.5q0 15 -2.5 25.5t-8 19t-14.5 16.5t-22 19v13zM267 747q5 -2 6 -5.5t1 -7.5l-1 -7
q0 -3 -2.5 -13.5t-3.5 -13.5q-1 12 -8.5 21t-18 15.5t-21.5 10.5t-19 6v14l7 -7zM200 573q8 20 11.5 41t3.5 41q-11 0 -19.5 -6t-8.5 -19v-3q0 -5 1 -12.5l2 -15t2 -13t1 -6.5zM87 493v7h13v-7h-13zM334 143q0 3 -1 4q-6 -1 -11 -4.5t-5 -10.5q6 0 11.5 2.5t5.5 8.5z" />
    <glyph glyph-name="cid354" unicode="&#xff7c;" horiz-adv-x="500" 
d="M80 730q0 9 5.5 15.5t14.5 7.5l40 1q27 0 58.5 -6.5t58.5 -21t45 -37.5t18 -56q0 -30 -15.5 -52t-46.5 -22q-28 0 -53 20t-47 47t-41.5 55.5t-36.5 45.5v3zM300 624q0 10 -7.5 17.5t-17 13.5t-19.5 11.5t-16 13.5q-1 -2 -1 -7l1 -6q1 -1 4 -5t6.5 -8.5t6.5 -8.5t3 -5
q1 -3 2.5 -11.5t2.5 -18.5t1.5 -18.5t0.5 -11.5q1 -5 5 -6t9 -1q6 0 10 6.5t6 15t2.5 17t0.5 12.5zM167 143q0 7 -1 12.5t-6 11.5q3 3 9 10.5t14 16.5l16 18t14 15q24 -3 54 3t57 20t45 35.5t18 49.5q0 9 -4.5 14.5t-9.5 10.5t-9.5 10.5t-4.5 14.5q0 35 8.5 70t22 69
t30.5 66.5t33 62.5q3 1 10 1q14 0 15.5 -6.5t1.5 -19.5q0 -86 -25.5 -171.5t-65.5 -167t-88.5 -158t-93.5 -144.5q-17 -27 -43 -27q-12 0 -30 7t-34.5 18t-28.5 24.5t-12 27.5q0 3 1 3l27 13q-13 17 -23 22.5t-17 10.5t-10.5 15.5t-3.5 38.5v40q4 10 10 12t14 2q7 0 10 -1
q9 -11 23.5 -25t29.5 -21q-2 0 -10 -3t-10 -4q-1 0 -1 -3t1 -4q1 0 6 -3t7 -3h7q3 0 9.5 1t14 2t14 2t9.5 1v10zM247 405q0 -31 -20 -52.5t-52 -21.5q0 5 -1 12.5t-7 9.5q-5 -3 -8.5 -8.5t-5.5 -11.5q-5 2 -17.5 15.5t-28 32.5t-32 42t-30.5 44t-23 37t-9 23q0 4 1 7.5
t6 5.5l37 1q23 0 42 -3t41 -11q-10 2 -12 -4.5t-2 -12.5q0 -7 1 -10q6 1 9 4.5t5 7t4 6.5t8 3q19 0 36 -11.5t30 -29t20.5 -37.5t7.5 -38zM347 413q-1 -1 -4 -6.5t-3 -6.5v-67q-16 -20 -36 -28t-44 -18q5 12 15.5 33t23 42.5t25.5 40t23 24.5v-14zM240 103q0 -10 12.5 -11
t18.5 -1q0 23 -21 23q-3 0 -3 -1q-6 -2 -7 -6v-4z" />
    <glyph glyph-name="cid355" unicode="&#xff7d;" horiz-adv-x="500" 
d="M393 480q-3 -8 -12 -24.5t-18 -36t-16.5 -39t-7.5 -33.5q0 -17 24 -40t53.5 -55t53.5 -73t24 -92q0 -16 -4 -33.5t-13 -32.5t-23 -24.5t-34 -9.5q-26 0 -42 14.5t-24.5 36t-11 45.5t-2.5 44v13l20 -7h7q0 3 1 9.5t2 14t2 14t1 9.5l1 7q0 13 -11 13h-3q-1 0 -3.5 -2.5
t-3.5 -4.5q-2 -3 -9.5 -13t-10.5 -13q-1 4 -3.5 19t-7 32t-10 31.5t-12.5 17.5q-18 -14 -38.5 -41.5t-43.5 -61t-48 -68.5t-51 -64t-52.5 -47.5t-52.5 -18.5q-7 0 -14.5 6.5t-6.5 14.5q4 18 20 41.5t35 48t37.5 48.5t27.5 42q41 77 72 151t62 155q9 -3 18.5 1.5t17.5 12.5
t13 18t5 18t-2.5 12.5t-11.5 4.5q-13 0 -24 -7v38l-9 2q-4 0 -7.5 0.5t-6.5 -0.5q-16 -3 -29 -15t-25 -24.5t-25.5 -23t-30.5 -10.5q-7 0 -18.5 3.5t-11.5 13.5v3q1 1 4 6t6 10.5t6 10.5t4 6l-2 13q-8 0 -20 -1t-24 1t-20.5 8t-8.5 21q13 0 24 6t18 19q0 7 -7 7
q-9 0 -21.5 -7.5t-18.5 -12.5v80q0 8 6.5 14t14.5 6h6l46 -47l17 -1q30 0 57.5 10.5t53 23.5t48.5 23.5t44 10.5q20 0 41.5 -12t39 -31t29 -41t11.5 -41t-14 -27t-30.5 -15.5t-30 -19t-13.5 -37.5q0 -12 8 -16.5t19 -4.5v-2zM353 707h-6v-7h6v7zM213 627h-13q4 -9 13 -9v9z
M400 500q-3 -1 -3 3t3 4q3 -1 3 -3.5t-3 -3.5zM240 427q5 0 5 6.5t-5 6.5t-5 -6.5t5 -6.5zM260 327v-7h7zM327 290q0 8 -6 9.5t-12 1.5q-8 0 -13 -2t-9 -12l26 -7h7q3 1 7 7v3zM233 247q3 0 3 3t-3 3q-3 1 -3 -3t3 -3zM207 247q0 3 -4 3t-3 -3t3.5 -3t3.5 3zM474 163
q0 8 -9.5 23.5t-17.5 20.5q-7 1 -14 -6.5t-7 -13.5t0.5 -13t2.5 -13t6 -10.5t11 -4.5t17.5 4.5t10.5 12.5zM167 153q-1 2 -9 12t-11 15q-3 4 -7 7q-23 -26 -33 -54h6q2 1 7 7t7 7h3q6 0 11.5 -3.5t12.5 -3.5q13 0 13 10v3zM87 40q-3 8 -8.5 15t-11.5 12q-1 -3 -1 -7
q0 -7 4.5 -13.5t12.5 -6.5h4z" />
    <glyph glyph-name="cid356" unicode="&#xff7e;" horiz-adv-x="500" 
d="M273 547q7 -7 20 2.5t28 24t29 27.5t23 13q18 0 39 -11.5t39.5 -29t30.5 -38t12 -38.5q0 -10 -11.5 -33.5t-30 -53t-40 -61t-42 -57.5t-36.5 -42.5t-23 -16.5q-14 0 -16 5.5t-2 18.5q0 22 5.5 43.5t11.5 43t11.5 43.5t5.5 44q0 6 -0.5 14.5t-9.5 8.5q-17 0 -30 -7.5
t-22 -19t-13.5 -26t-4.5 -28.5v-240l6 -6q2 -1 11.5 -1.5t13.5 -0.5q26 0 49.5 8t48.5 8q8 0 16 -0.5t15 -7.5q-15 -19 -40 -25.5t-47 -7.5v-18q12 0 20.5 2.5t20.5 2.5q14 0 24.5 -7t24.5 -7q19 0 24.5 16t5.5 31q20 -7 27 -23t7 -35q0 -34 -19 -52t-46.5 -26.5t-59 -9.5
t-56.5 -1q-17 0 -43 1t-51.5 8t-43.5 22t-18 43v280q-2 2 -4 3t-3.5 1.5t-2.5 1.5t-4 1q-7 0 -13.5 -4.5t-13.5 -9.5t-14.5 -9.5t-16.5 -4.5q-8 0 -18.5 6t-19.5 15t-15 20t-6 20q0 6 3.5 10.5t7 8.5t7 9t3.5 12q0 13 -10 13h-4l-20 -7v27v18.5t2.5 22.5t8 18.5t16.5 7.5h7
q11 -25 21.5 -29.5t28.5 -4.5q7 0 17.5 0.5t20 4t16 10.5t6.5 19v117q4 0 12.5 1t10.5 8q-4 21 -19.5 39t-32 32.5t-29.5 25.5t-13 17q0 10 12 19t27.5 15t31 9.5t23.5 3.5q16 0 39 -6t44 -17t36 -26.5t15 -34.5q0 -17 -4.5 -33t-9.5 -32t-9.5 -33t-4.5 -35v-13.5t1 -10.5z
M227 697q7 0 17 5t10 15q0 8 -7 12.5t-14 4.5q-4 0 -6 -1v-36zM327 480q1 1 3 2q3 3 3 5q1 0 1 3t-1 3q-2 3 -7 8.5t-6 5.5h-47q-2 0 -7 -5.5t-6 -8.5t1.5 -8t5.5 -5h60zM190 220q2 0 8 9.5t12.5 21t11.5 21t5 10.5q0 20 -13 33t-27 25l-14 107l-6 6q-13 -17 -17 -26.5
t-4 -25.5q0 -18 3.5 -43t9 -51t13 -49t15.5 -38h3zM428 418q-11 0 -23 -7t-22.5 -18t-17 -23.5t-6.5 -22.5l1 -14q26 9 47 33t21 52zM233 113q-1 1 -3 1q-17 0 -24.5 -14t-7.5 -27h9zM260 -10q0 12 -11.5 16t-19.5 4q0 -13 3.5 -21.5t17.5 -8.5h3q5 2 7 7v3z" />
    <glyph glyph-name="cid357" unicode="&#xff7f;" horiz-adv-x="500" 
d="M300 443q0 48 10 95.5t10 96.5q0 18 -9.5 30t-21 21.5t-21 18.5t-9.5 21t10.5 18t24.5 8t28 2h22q16 0 29 -3t27 -11q-2 -12 0 -22t5 -19t6 -18.5t3 -21.5t-7.5 -20.5t-19.5 -11.5q4 -7 11 -11t13.5 -8.5t11 -10.5t4.5 -17q0 -8 -3.5 -15t-3.5 -15t5.5 -9t10.5 -1
q8 0 13 0.5t11 6.5q-21 -80 -44 -154t-56 -140.5t-79.5 -126.5t-113.5 -113q-10 -8 -25 -19t-31.5 -22t-32.5 -18.5t-28 -7.5q-8 0 -12.5 7t-4.5 14v6q36 36 65.5 72.5t55.5 75t49 80t44 86.5q14 30 21 64t25 62q2 -6 5 -10q2 -4 4.5 -7t4.5 -3h51q0 7 -1.5 17.5t-4.5 20
t-8.5 16.5t-13.5 7q-3 0 -3 -1q-4 -2 -14 -9.5t-13 -10.5v10zM423 727q10 0 21.5 -7t21 -17t16 -21.5t6.5 -21.5q0 -5 -3.5 -19.5t-8.5 -30t-11 -28.5t-12 -15q-10 13 -11.5 30.5t-1.5 33.5q0 18 7 29.5t20 26.5q-4 7 -10.5 10t-13.5 6t-13.5 8t-9.5 16h3zM20 694
q0 8 5.5 14t13.5 6q31 0 63.5 -26.5t59 -64.5t43 -80t16.5 -73q0 -17 -4.5 -35.5t-14 -33.5t-24 -25t-34.5 -10q-30 0 -48 16.5t-27.5 41t-12.5 52.5t-3 51v20q4 -9 12.5 -14.5t19 -8.5t21.5 -4t20 -1q12 0 17 3t5 16q0 7 -8 11.5t-17.5 9t-18.5 11t-11 17.5q0 1 0.5 7
t0.5 12.5v12.5t-1 8q0 1 -2.5 3.5t-3.5 2.5q-12 -8 -22 -25t-18 -28q-2 6 -6 21t-8.5 32t-8 32.5t-4.5 21.5v7zM213 447q-2 7 -7.5 11t-13 6t-15 2.5t-12.5 0.5q-16 0 -24.5 -10t-8.5 -26q0 -15 2.5 -25.5t12.5 -25.5q2 2 13.5 9.5t23.5 17t21.5 20.5t7.5 20zM287 213h-20
v-6h20v6zM234 97q0 2 -1 3q-3 7 -7.5 15t-14.5 8q0 -1 0.5 -7t1.5 -12.5t3.5 -12t6.5 -5.5q3 0 4 1q4 1 6 6q1 1 1 4z" />
    <glyph glyph-name="cid358" unicode="&#xff80;" horiz-adv-x="500" 
d="M93 783q0 11 9.5 16t21.5 7t24 1.5t17 -0.5q14 0 38 -4.5t47 -14t40 -24t17 -34.5q0 -11 -3.5 -20.5t-8 -19t-8 -19.5t-3.5 -22q13 0 24 6t21 13t19.5 13t21.5 6q18 0 36.5 -13t33.5 -32t24.5 -39.5t9.5 -36.5q0 -12 -6.5 -34t-16.5 -43.5t-21.5 -37.5t-21.5 -16
q0 -9 3 -12t3 -13q0 -12 -4.5 -23t-9.5 -22t-9.5 -22t-4.5 -23q0 -11 5.5 -19.5t11.5 -16.5t11.5 -16t5.5 -18v-3q-5 2 -20 6.5t-20 6.5h-4q-10 0 -10 -13q0 -11 6.5 -21.5t16.5 -18.5t21.5 -13.5t22.5 -6.5q1 1 1 3q0 10 -4 18.5t-4 18.5l1 13q6 -3 9.5 -11t6 -18
t3.5 -19.5t1 -14.5q0 -33 -19.5 -52t-50.5 -19h-10.5t-6.5 1l-53 53q-1 1 -6 1q-4 0 -17.5 -13.5t-32 -34t-41 -45.5t-45 -48t-43 -41.5t-35.5 -25.5l-67 -33q-1 -1 -3 -1q-3 0 -4 1l-13 13q-1 1 -1 4q0 2 1 3q14 16 37 41t49 55.5t52 64t47.5 66.5t35 63t13.5 53
q0 10 -8.5 27.5t-20.5 34.5t-25.5 29.5t-22.5 12.5q-11 0 -18 -8.5t-13 -18.5t-13 -18.5t-19 -8.5q-10 0 -16 3.5t-15 3.5q-8 0 -15.5 -5.5t-13.5 -13t-10 -16.5t-4 -15v-3l13 -20q1 -1 3 -1q3 0 4 1q2 0 7 2.5t6 3.5q-8 -14 -15.5 -20.5t-20.5 -6.5q-8 0 -16 4t-8 13v4
q60 108 95.5 223.5t51.5 236.5q0 -4 0.5 -13t3 -18t8 -16t15.5 -7q5 0 6 5.5t1 8.5q0 10 -7.5 16.5t-7.5 16.5q0 9 4.5 11.5t12.5 2.5q9 0 14.5 -4t12.5 -4q6 0 11.5 8t5.5 13q0 14 -4.5 22.5t-12.5 13t-19 6.5t-24 4q0 -2 -2 -10t-5 -18t-6.5 -17.5t-6.5 -7.5h-7l-40 40v3z
M387 653q5 0 5 7t-5 7t-5 -7t5 -7zM237 573q2 0 12.5 8t22 18t21 19.5t9.5 12.5l-35 2q-1 0 -7 3.5t-7 3.5q-7 -3 -12 -10t-8 -16t-4.5 -18t-1.5 -16q0 -1 2.5 -3.5l3.5 -3.5h4zM160 615q-8 0 -15 -3t-7 -12h22v15zM193 433l6.5 -3t15 -7.5t17.5 -9t15 -6.5q3 -2 10.5 -4.5
t9.5 -2.5q10 0 16.5 21t10.5 47t5.5 50t1.5 30l-8 -1q-2 -1 -9 -3.5t-15.5 -6t-16.5 -6.5t-12 -4q-2 -1 -4 -1.5t-4 -2.5q-3 -2 -5 -3l-34 -67v-20zM195 501q-8 0 -16 -3.5t-8 -12.5q9 0 16.5 2.5t7.5 13.5zM354 420v11.5t-7 8.5q-13 -6 -17 -12.5t-4 -17.5q0 -8 2 -13.5
t12 -9.5q9 6 11.5 15t2.5 18zM315 235q0 15 -8 23.5t-8 23.5q0 12 4 22.5t4 22.5q0 13 -10 13q-1 0 -8.5 -10.5t-17 -24.5t-18.5 -27t-13 -18q14 -18 33.5 -21.5t41.5 -3.5zM13 267q3 0 3 3t-3 3q-3 1 -3 -3t3 -3zM193 127q1 9 -6.5 13t-14.5 4q0 -18 15 -18q4 0 6 1z
M200 113q3 1 3 3.5t-3 3.5t-3 -3t3 -4zM215 80q0 16 -8 27v-27h8z" />
    </font>
</defs>
</svg>
