<?xml version="1.0" standalone="no"?>
<!DOCTYPE svg PUBLIC "-//W3C//DTD SVG 1.1//EN" "http://www.w3.org/Graphics/SVG/1.1/DTD/svg11.dtd" >
<svg>
<metadata>
Created by FontForge 20120731 at Sat Jun 29 18:04:52 2019
 By www
Font Typeface: DS-Digital. Created by Dusit Supasawat , DS-Font 1998. All Rights Reserved
</metadata>
<defs>
<font id="DS-Digital" horiz-adv-x="539" >
  <font-face 
    font-family="DS-Digital"
    font-weight="400"
    font-style="italic"
    font-stretch="normal"
    units-per-em="1100"
    panose-1="0 0 0 0 0 0 0 0 0 0"
    ascent="880"
    descent="-220"
    x-height="700"
    cap-height="700"
    bbox="11 -187 968 900"
    underline-thickness="70"
    underline-position="-85"
    unicode-range="U+0020-2030"
  />
<missing-glyph horiz-adv-x="550" 
d="M34 0v900h482v-900h-482zM482 34v832h-414v-832h414z" />
    <glyph glyph-name=".notdef" horiz-adv-x="550" 
d="M34 0v900h482v-900h-482zM482 34v832h-414v-832h414z" />
    <glyph glyph-name=".null" horiz-adv-x="0" 
 />
    <glyph glyph-name="nonmarkingreturn" horiz-adv-x="260" 
 />
    <glyph glyph-name="space" unicode=" " horiz-adv-x="260" 
 />
    <glyph glyph-name="exclam" unicode="!" horiz-adv-x="287" 
d="M181 307v-293l-75 75v200l47 47zM106 411v214l75 75v-308l-28 -28zM181 -14h-75v-75h75v75z" />
    <glyph glyph-name="quotedbl" unicode="&#x22;" horiz-adv-x="306" 
d="M135 569l-38 -37l-37 37v131h75v-131zM247 569l-38 -37l-37 37v131h75v-131z" />
    <glyph glyph-name="numbersign" unicode="#" horiz-adv-x="558" 
d="M218 315l-37 -37l-38 37v70l38 37l37 -37v-70zM316 263l-37 -37h-47l-37 37l37 37h47zM167 263l-38 -37h-79l-37 37l37 37h79zM218 96l-37 -38l-38 38v116l38 37l37 -37v-116zM367 315l-37 -37l-37 37v70l37 37l37 -37v-35v-35zM498 263l-37 -37h-80l-37 37l37 37h80z
M367 96l-37 -38l-37 38v116l37 37l37 -37v-116zM218 487l-37 -37l-38 37v117l38 38l37 -38v-117zM316 436l-37 -37h-47l-37 37l37 37h47zM167 436l-38 -37h-79l-37 37l37 37h79zM367 487l-37 -37l-37 37v117l37 38l37 -38v-117zM498 436l-37 -37h-80l-37 37l37 37h80z" />
    <glyph glyph-name="dollar" unicode="$" 
d="M479 663l-37 -38h-294l-37 38l37 37h294zM479 89l-37 -38l-37 38v200l47 47l27 -29v-218zM135 411l-47 -47l-28 28v219l37 38l38 -38v-200zM97 0l-37 37l37 38h294l37 -38l-37 -37h-294zM400 387l38 -37l-38 -37h-261l-37 37l37 37h261zM232 812l37 37l38 -37v-94h-75v94
zM232 -18h75v-94l-38 -37l-37 37v94z" />
    <glyph glyph-name="percent" unicode="%" horiz-adv-x="665" 
d="M265 670l-37 -38h-80l-37 38l37 37h80zM265 427l-37 -37h-80l-37 37l37 38h80zM60 479l37 -36l38 36v139l-38 38l-37 -38v-139zM241 479v139l38 38l37 -38v-139l-37 -36zM554 280l-37 -38h-79l-38 38l38 37h79zM554 37l-37 -37h-79l-38 37l38 38h79zM349 89l37 -36l38 36
v139l-38 38l-37 -38v-139zM531 89v139l37 38l37 -38v-139l-37 -36zM353 320l-181 -316l-28 102l136 234l63 18zM340 446l135 234l103 27l-183 -314l-38 -11z" />
    <glyph glyph-name="ampersand" unicode="&#x26;" 
d="M428 663l-37 -38h-243l-37 38l37 37h243zM479 392l-27 -28l-47 47v69l37 38l37 -38v-88zM479 89l-37 -38l-37 38v200l47 47l27 -29v-218zM438 350l-38 -37h-261l-37 37l37 37h261zM135 411l-47 -47l-28 28v219l37 38l38 -38v-200zM428 37l-37 -37h-243l-37 37l37 38h243z
M135 89l-38 -38l-37 38v218l28 29l47 -47v-200zM503 313l-38 37l38 37l37 -37z" />
    <glyph glyph-name="quotesingle" unicode="'" horiz-adv-x="194" 
d="M135 569l-38 -37l-37 37v131h75v-131z" />
    <glyph glyph-name="parenleft" unicode="(" horiz-adv-x="353" 
d="M293 700l-75 -75h-70l-37 38l37 37h145zM135 411l-47 -47l-28 28v219l37 38l38 -38v-200zM135 89l-38 -38l-37 38v218l28 29l47 -47v-200zM293 0h-145l-37 37l37 38h70z" />
    <glyph glyph-name="parenright" unicode=")" horiz-adv-x="353" 
d="M293 89l-38 -38l-37 38v200l47 47l28 -29v-218zM293 392l-28 -28l-47 47v200l37 38l38 -38v-219zM241 663l-37 -38h-69l-75 75h144zM241 37l-37 -37h-144l75 75h69z" />
    <glyph glyph-name="asterisk" unicode="*" horiz-adv-x="435" 
d="M74 558l-14 51l51 14l49 -28l41 -66h-75zM324 413l51 13l-14 53l-52 32h-75l40 -67zM254 373l-37 -37l-37 37v57l37 69l37 -66v-60zM254 604l-37 -67l-37 67v59l37 37l37 -37v-59zM111 413l-51 13l14 52l52 29h75l-41 -68zM309 531h-75l40 66l50 26l51 -14l-14 -51z" />
    <glyph glyph-name="plus" unicode="+" horiz-adv-x="455" 
d="M265 401l-37 -37l-38 37v79l38 38l37 -38v-79zM395 350l-37 -37h-79l-38 37l38 37h79zM214 350l-38 -37h-79l-37 37l37 37h79zM265 219l-37 -37l-38 37v80l38 37l37 -37v-80z" />
    <glyph glyph-name="comma" unicode="," horiz-adv-x="194" 
d="M135 -79l-38 -37l-37 37v154h75v-154z" />
    <glyph glyph-name="hyphen" unicode="-" horiz-adv-x="455" 
d="M358 387l37 -37l-37 -37h-261l-37 37l37 37h261z" />
    <glyph glyph-name="period" unicode="." horiz-adv-x="194" 
d="M60 0v75h75v-75h-75z" />
    <glyph glyph-name="slash" unicode="/" horiz-adv-x="506" 
d="M246 320l-182 -316l-28 102l136 234l63 18zM232 446l135 234l103 27l-183 -314l-38 -11z" />
    <glyph glyph-name="zero" unicode="0" 
d="M479 392l-27 -28l-47 47v200l74 75v-294zM465 700l-74 -75h-243l-74 75h391zM135 411l-47 -47l-28 28v294l75 -75v-200zM479 14l-74 75v200l47 47l27 -29v-293zM465 0h-391l74 75h243zM135 89l-75 -75v293l28 29l47 -47v-200z" />
    <glyph glyph-name="one" unicode="1" horiz-adv-x="287" 
d="M181 307v-293l-75 75v200l47 47zM106 411v200l75 75v-294l-28 -28z" />
    <glyph glyph-name="two" unicode="2" 
d="M465 700l-74 -75h-243l-74 75h391zM465 0h-391l74 75h243zM135 289v-200l-75 -75v293l28 29zM405 411v200l74 75v-294l-27 -28zM400 387l38 -37l-38 -37h-261l-37 37l37 37h261z" />
    <glyph glyph-name="three" unicode="3" 
d="M465 700l-74 -75h-243l-74 75h391zM465 0h-391l74 75h243zM479 307v-293l-74 75v200l47 47zM405 411v200l74 75v-294l-27 -28zM400 387l38 -37l-38 -37h-261l-37 37l37 37h261z" />
    <glyph glyph-name="four" unicode="4" 
d="M60 392v294l75 -75v-200l-47 -47zM479 307v-293l-74 75v200l47 47zM405 411v200l74 75v-294l-27 -28zM400 387l38 -37l-38 -37h-261l-37 37l37 37h261z" />
    <glyph glyph-name="five" unicode="5" 
d="M465 700l-74 -75h-243l-74 75h391zM465 0h-391l74 75h243zM60 392v294l75 -75v-200l-47 -47zM479 307v-293l-74 75v200l47 47zM400 387l38 -37l-38 -37h-261l-37 37l37 37h261z" />
    <glyph glyph-name="six" unicode="6" 
d="M465 700l-74 -75h-243l-74 75h391zM465 0h-391l74 75h243zM135 289v-200l-75 -75v293l28 29zM60 392v294l75 -75v-200l-47 -47zM479 307v-293l-74 75v200l47 47zM400 387l38 -37l-38 -37h-261l-37 37l37 37h261z" />
    <glyph glyph-name="seven" unicode="7" 
d="M465 700l-74 -75h-243l-74 75h391zM479 307v-293l-74 75v200l47 47zM405 411v200l74 75v-294l-27 -28z" />
    <glyph glyph-name="eight" unicode="8" 
d="M465 700l-74 -75h-243l-74 75h391zM465 0h-391l74 75h243zM135 289v-200l-75 -75v293l28 29zM60 392v294l75 -75v-200l-47 -47zM479 307v-293l-74 75v200l47 47zM405 411v200l74 75v-294l-27 -28zM400 387l38 -37l-38 -37h-261l-37 37l37 37h261z" />
    <glyph glyph-name="nine" unicode="9" 
d="M465 700l-74 -75h-243l-74 75h391zM465 0h-391l74 75h243zM60 392v294l75 -75v-200l-47 -47zM479 307v-293l-74 75v200l47 47zM405 411v200l74 75v-294l-27 -28zM400 387l38 -37l-38 -37h-261l-37 37l37 37h261z" />
    <glyph glyph-name="colon" unicode=":" horiz-adv-x="241" 
d="M83 0v75h75v-75h-75zM83 508v75h75v-75h-75z" />
    <glyph glyph-name="semicolon" unicode=";" horiz-adv-x="241" 
d="M158 -79l-37 -37l-38 37v154h75v-154zM83 508v75h75v-75h-75z" />
    <glyph glyph-name="less" unicode="&#x3c;" horiz-adv-x="396" 
d="M337 531l-172 -171h-105l224 224h53v-53zM337 116h-53l-224 223h105l172 -171v-52z" />
    <glyph glyph-name="equal" unicode="=" horiz-adv-x="455" 
d="M358 462l37 -37l-37 -38h-261l-37 38l37 37h261zM358 313l37 -38l-37 -37h-261l-37 37l37 38h261z" />
    <glyph glyph-name="greater" unicode="&#x3e;" horiz-adv-x="396" 
d="M337 354h-106l-171 172v53h53zM337 334l-224 -224h-53v53l171 171h106z" />
    <glyph glyph-name="question" unicode="?" 
d="M479 392l-27 -28l-47 47v200l37 38l37 -38v-219zM428 663l-37 -38h-256l-75 75h331zM135 89l-75 -75v293l28 29l47 -47v-200zM400 387l38 -37l-38 -37h-261l-37 37l37 37h261zM135 -14h-75v-75h75v75z" />
    <glyph glyph-name="at" unicode="@" horiz-adv-x="632" 
d="M573 513l-28 -28l-47 47v79l75 75v-173zM558 700l-74 -75h-336l-37 38l37 37h410zM531 471l-38 -37h-261l-37 37l37 37h261zM573 163l-75 75v173l47 46l28 -28v-266zM135 411l-47 -47l-28 28v219l37 38l38 -38v-200zM558 149h-317l-37 38l37 37h243zM228 238l-38 -37
l-37 37v191l28 28l47 -46v-173zM60 307l28 29l47 -47v-200l-38 -38l-37 38v218zM148 0l-37 37l37 38h388l37 -38l-37 -37h-388z" />
    <glyph glyph-name="A" unicode="A" 
d="M465 700l-74 -75h-243l-74 75h391zM135 289v-214l-75 -75v307l28 29zM60 392v294l75 -75v-200l-47 -47zM479 307v-307l-74 75v214l47 47zM405 411v200l74 75v-294l-27 -28zM400 387l38 -37l-38 -37h-261l-37 37l37 37h261z" />
    <glyph glyph-name="B" unicode="B" 
d="M479 89l-37 -38l-37 38v200l47 47l27 -29v-218zM479 392l-27 -28l-47 47v200l37 38l37 -38v-219zM428 663l-37 -38h-243l-74 75h317zM428 37l-37 -37h-317l74 75h243zM135 411l-47 -47l-28 28v294l75 -75v-200zM135 89l-75 -75v293l28 29l47 -47v-200zM400 387l38 -37
l-38 -37h-261l-37 37l37 37h261z" />
    <glyph glyph-name="C" unicode="C" 
d="M479 700l-74 -75h-257l-37 38l37 37h331zM135 411l-47 -47l-28 28v219l37 38l38 -38v-200zM479 0h-331l-37 37l37 38h257zM135 89l-38 -38l-37 38v218l28 29l47 -47v-200z" />
    <glyph glyph-name="D" unicode="D" 
d="M479 89l-37 -38l-37 38v200l47 47l27 -29v-218zM479 392l-27 -28l-47 47v200l37 38l37 -38v-219zM428 663l-37 -38h-243l-74 75h317zM428 37l-37 -37h-317l74 75h243zM135 411l-47 -47l-28 28v294l75 -75v-200zM135 89l-75 -75v293l28 29l47 -47v-200z" />
    <glyph glyph-name="E" unicode="E" 
d="M479 700l-74 -75h-257l-74 75h405zM479 0h-405l74 75h257zM135 289v-200l-75 -75v293l28 29zM60 392v294l75 -75v-200l-47 -47zM400 387l38 -37l-38 -37h-261l-37 37l37 37h261z" />
    <glyph glyph-name="F" unicode="F" 
d="M479 700l-74 -75h-257l-74 75h405zM135 289v-200l-75 -75v293l28 29zM60 392v294l75 -75v-200l-47 -47zM400 387l38 -37l-38 -37h-261l-37 37l37 37h261z" />
    <glyph glyph-name="G" unicode="G" 
d="M465 700l-74 -75h-243l-37 38l37 37h317zM438 350l-38 -37h-84l-37 37l37 37h84zM135 411l-47 -47l-28 28v219l37 38l38 -38v-200zM135 89l-38 -38l-37 38v218l28 29l47 -47v-200zM391 0l37 37l-37 38h-243l-37 -38l37 -37h243zM479 89l-37 -38l-37 38v200l47 47l27 -29
v-218z" />
    <glyph glyph-name="H" unicode="H" 
d="M135 289v-214l-75 -75v307l28 29zM60 392v308l75 -75v-214l-47 -47zM479 307v-307l-74 75v214l47 47zM405 411v214l74 75v-308l-27 -28zM400 387l38 -37l-38 -37h-261l-37 37l37 37h261z" />
    <glyph glyph-name="I" unicode="I" horiz-adv-x="287" 
d="M181 392l-28 -28l-47 47v252l37 37l38 -37v-271zM181 37l-38 -37l-37 37v252l47 47l28 -29v-270z" />
    <glyph glyph-name="J" unicode="J" 
d="M465 0h-391l74 75h243zM135 196v-107l-75 -75v201l28 27zM479 307v-293l-74 75v200l47 47zM405 411v214l74 75v-308l-27 -28z" />
    <glyph glyph-name="K" unicode="K" 
d="M135 289v-214l-75 -75v307l28 29zM60 392v308l75 -75v-214l-47 -47zM479 307v-307l-74 75v214l47 47zM391 697h53v-53l-238 -235h-53v53zM400 387l38 -37l-38 -37h-261l-37 37l37 37h261z" />
    <glyph glyph-name="L" unicode="L" 
d="M479 0h-405l74 75h257zM135 289v-200l-75 -75v293l28 29zM60 392v308l75 -75v-214l-47 -47z" />
    <glyph glyph-name="M" unicode="M" 
d="M465 700l-74 -75h-243l-74 75h391zM135 289v-214l-75 -75v307l28 29zM60 392v294l75 -75v-200l-47 -47zM479 307v-307l-74 75v214l47 47zM405 411v200l74 75v-294l-27 -28zM232 569l37 37l38 -37v-167l-38 -38l-37 38v167z" />
    <glyph glyph-name="N" unicode="N" 
d="M135 289v-214l-75 -75v307l28 29zM60 392v308l75 -75v-214l-47 -47zM479 307v-307l-74 75v214l47 47zM405 411v214l74 75v-308l-27 -28zM152 571v54h53l182 -182v-53h-53z" />
    <glyph glyph-name="O" unicode="O" 
d="M479 392l-27 -28l-47 47v200l37 38l37 -38v-219zM428 663l-37 -38h-243l-37 38l37 37h243zM479 89l-37 -38l-37 38v200l47 47l27 -29v-218zM135 411l-47 -47l-28 28v219l37 38l38 -38v-200zM60 89l37 -38l38 38v200l-47 47l-28 -29v-218zM148 0l-37 37l37 38h243l37 -38
l-37 -37h-243z" />
    <glyph glyph-name="P" unicode="P" 
d="M479 392l-27 -28l-47 47v200l37 38l37 -38v-219zM428 663l-37 -38h-243l-74 75h317zM135 411l-47 -47l-28 28v294l75 -75v-200zM135 75l-75 -75v307l28 29l47 -47v-214zM400 387l38 -37l-38 -37h-261l-37 37l37 37h261z" />
    <glyph glyph-name="Q" unicode="Q" 
d="M479 392l-27 -28l-47 47v200l37 38l37 -38v-219zM428 663l-37 -38h-243l-37 38l37 37h243zM479 155l-37 -37l-37 37v134l47 47l27 -29v-152zM135 411l-47 -47l-28 28v219l37 38l38 -38v-200zM60 89l37 -38l38 38v200l-47 47l-28 -29v-218zM148 0l-37 37l37 38h176l37 -38
l-37 -37h-176zM338 89v53h53l88 -89v-53h-53z" />
    <glyph glyph-name="R" unicode="R" 
d="M479 392l-27 -28l-47 47v200l37 38l37 -38v-219zM428 663l-37 -38h-243l-74 75h317zM135 411l-47 -47l-28 28v294l75 -75v-200zM135 75l-75 -75v307l28 29l47 -47v-214zM186 241v53h53l240 -241v-53h-53zM400 387l38 -37l-38 -37h-261l-37 37l37 37h261z" />
    <glyph glyph-name="S" unicode="S" 
d="M479 663l-37 -38h-294l-37 38l37 37h294zM479 89l-37 -38l-37 38v200l47 47l27 -29v-218zM135 411l-47 -47l-28 28v219l37 38l38 -38v-200zM97 0l-37 37l37 38h294l37 -38l-37 -37h-294zM400 387l38 -37l-38 -37h-261l-37 37l37 37h261z" />
    <glyph glyph-name="T" unicode="T" 
d="M479 700l-74 -75h-270l-75 75h419zM307 37l-38 -37l-37 37v215l47 47l28 -28v-234zM307 354l-28 -27l-47 46v201l37 37l38 -37v-220z" />
    <glyph glyph-name="U" unicode="U" 
d="M479 89l-37 -38l-37 38v200l47 47l27 -29v-218zM60 89l37 -38l38 38v200l-47 47l-28 -29v-218zM148 0l-37 37l37 38h243l37 -38l-37 -37h-243zM60 392v308l75 -75v-214l-47 -47zM405 411v214l74 75v-308l-27 -28z" />
    <glyph glyph-name="V" unicode="V" 
d="M479 392l-27 -28l-47 47v214l74 75v-308zM446 282l-245 -245h-53v53l245 246l59 1zM135 411l-47 -47l-28 28v308l75 -75v-214zM60 37l37 -37l38 37v252l-47 47l-28 -29v-270z" />
    <glyph glyph-name="W" unicode="W" 
d="M479 392l-27 -28l-47 47v214l74 75v-308zM135 411l-47 -47l-28 28v308l75 -75v-214zM479 14l-74 75v200l47 47l27 -29v-293zM307 130l-38 -37l-37 37v168l37 38l38 -38v-168zM465 0h-391l74 75h243zM135 89l-75 -75v293l28 29l47 -47v-200z" />
    <glyph glyph-name="X" unicode="X" 
d="M284 364v82l152 254h43v-73l-157 -263h-38zM218 364l-158 263v73h43l152 -254v-82h-37zM255 336v-82l-152 -254h-43v73l158 263h37zM321 336l158 -263v-73h-43l-152 254v82h37z" />
    <glyph glyph-name="Y" unicode="Y" 
d="M479 392l-27 -28l-47 47v214l74 75v-308zM60 392l28 -28l47 47v214l-75 75v-308zM148 0l-37 37l37 38h243l37 -38l-37 -37h-243zM479 89l-37 -38l-37 38v200l47 47l27 -29v-218zM400 387l38 -37l-38 -37h-261l-37 37l37 37h261z" />
    <glyph glyph-name="Z" unicode="Z" 
d="M479 663l-37 -38h-307l-75 75h382zM465 0h-368l-37 37l37 38h294zM334 369l-66 -8l-3 40l162 205h52v-55zM211 336l40 4l9 -66l-145 -181h-55v52z" />
    <glyph glyph-name="bracketleft" unicode="[" horiz-adv-x="353" 
d="M293 700l-75 -75h-70l-74 75h219zM293 0h-219l74 75h70zM135 289v-200l-75 -75v293l28 29zM60 392v294l75 -75v-200l-47 -47z" />
    <glyph glyph-name="backslash" unicode="\" horiz-adv-x="506" 
d="M274 446l-18 -64l-38 11l-182 314l102 -27zM470 106l-28 -102l-181 316l9 38l64 -18z" />
    <glyph glyph-name="bracketright" unicode="]" horiz-adv-x="353" 
d="M279 700l-75 -75h-69l-75 75h219zM293 392l-28 -28l-47 47v200l75 75v-294zM293 14l-75 75v200l47 47l28 -29v-293zM279 0h-219l75 75h69z" />
    <glyph glyph-name="asciicircum" unicode="^" horiz-adv-x="492" 
d="M380 469l-126 125v106l178 -177v-54h-52zM60 472v53l174 175v-106l-122 -122h-52z" />
    <glyph glyph-name="underscore" unicode="_" horiz-adv-x="445" 
d="M381 -112l38 -37l-38 -38h-317l-37 38l37 37h317z" />
    <glyph glyph-name="grave" unicode="`" horiz-adv-x="249" 
d="M189 594l-14 -51l-50 14l-65 113l64 37z" />
    <glyph glyph-name="a" unicode="a" 
d="M465 700l-74 -75h-243l-74 75h391zM135 289v-214l-75 -75v307l28 29zM60 392v294l75 -75v-200l-47 -47zM479 307v-307l-74 75v214l47 47zM405 411v200l74 75v-294l-27 -28zM400 387l38 -37l-38 -37h-261l-37 37l37 37h261z" />
    <glyph glyph-name="b" unicode="b" 
d="M479 89l-37 -38l-37 38v200l47 47l27 -29v-218zM479 392l-27 -28l-47 47v200l37 38l37 -38v-219zM428 663l-37 -38h-243l-74 75h317zM428 37l-37 -37h-317l74 75h243zM135 411l-47 -47l-28 28v294l75 -75v-200zM135 89l-75 -75v293l28 29l47 -47v-200zM400 387l38 -37
l-38 -37h-261l-37 37l37 37h261z" />
    <glyph glyph-name="c" unicode="c" 
d="M479 700l-74 -75h-257l-37 38l37 37h331zM135 411l-47 -47l-28 28v219l37 38l38 -38v-200zM479 0h-331l-37 37l37 38h257zM135 89l-38 -38l-37 38v218l28 29l47 -47v-200z" />
    <glyph glyph-name="d" unicode="d" 
d="M479 89l-37 -38l-37 38v200l47 47l27 -29v-218zM479 392l-27 -28l-47 47v200l37 38l37 -38v-219zM428 663l-37 -38h-243l-74 75h317zM428 37l-37 -37h-317l74 75h243zM135 411l-47 -47l-28 28v294l75 -75v-200zM135 89l-75 -75v293l28 29l47 -47v-200z" />
    <glyph glyph-name="e" unicode="e" 
d="M479 700l-74 -75h-257l-74 75h405zM479 0h-405l74 75h257zM135 289v-200l-75 -75v293l28 29zM60 392v294l75 -75v-200l-47 -47zM400 387l38 -37l-38 -37h-261l-37 37l37 37h261z" />
    <glyph glyph-name="f" unicode="f" 
d="M479 700l-74 -75h-257l-74 75h405zM135 289v-200l-75 -75v293l28 29zM60 392v294l75 -75v-200l-47 -47zM400 387l38 -37l-38 -37h-261l-37 37l37 37h261z" />
    <glyph glyph-name="g" unicode="g" 
d="M465 700l-74 -75h-243l-37 38l37 37h317zM438 350l-38 -37h-84l-37 37l37 37h84zM135 411l-47 -47l-28 28v219l37 38l38 -38v-200zM135 89l-38 -38l-37 38v218l28 29l47 -47v-200zM391 0l37 37l-37 38h-243l-37 -38l37 -37h243zM479 89l-37 -38l-37 38v200l47 47l27 -29
v-218z" />
    <glyph glyph-name="h" unicode="h" 
d="M135 289v-214l-75 -75v307l28 29zM60 392v308l75 -75v-214l-47 -47zM479 307v-307l-74 75v214l47 47zM405 411v214l74 75v-308l-27 -28zM400 387l38 -37l-38 -37h-261l-37 37l37 37h261z" />
    <glyph glyph-name="i" unicode="i" horiz-adv-x="287" 
d="M181 392l-28 -28l-47 47v252l37 37l38 -37v-271zM181 37l-38 -37l-37 37v252l47 47l28 -29v-270z" />
    <glyph glyph-name="j" unicode="j" 
d="M465 0h-391l74 75h243zM135 196v-107l-75 -75v201l28 27zM479 307v-293l-74 75v200l47 47zM405 411v214l74 75v-308l-27 -28z" />
    <glyph glyph-name="k" unicode="k" 
d="M135 289v-214l-75 -75v307l28 29zM60 392v308l75 -75v-214l-47 -47zM479 307v-307l-74 75v214l47 47zM391 697h53v-53l-238 -235h-53v53zM400 387l38 -37l-38 -37h-261l-37 37l37 37h261z" />
    <glyph glyph-name="l" unicode="l" 
d="M479 0h-405l74 75h257zM135 289v-200l-75 -75v293l28 29zM60 392v308l75 -75v-214l-47 -47z" />
    <glyph glyph-name="m" unicode="m" 
d="M465 700l-74 -75h-243l-74 75h391zM135 289v-214l-75 -75v307l28 29zM60 392v294l75 -75v-200l-47 -47zM479 307v-307l-74 75v214l47 47zM405 411v200l74 75v-294l-27 -28zM232 569l37 37l38 -37v-167l-38 -38l-37 38v167z" />
    <glyph glyph-name="n" unicode="n" 
d="M135 289v-214l-75 -75v307l28 29zM60 392v308l75 -75v-214l-47 -47zM479 307v-307l-74 75v214l47 47zM405 411v214l74 75v-308l-27 -28zM152 571v54h53l182 -182v-53h-53z" />
    <glyph glyph-name="o" unicode="o" 
d="M479 392l-27 -28l-47 47v200l37 38l37 -38v-219zM428 663l-37 -38h-243l-37 38l37 37h243zM479 89l-37 -38l-37 38v200l47 47l27 -29v-218zM135 411l-47 -47l-28 28v219l37 38l38 -38v-200zM60 89l37 -38l38 38v200l-47 47l-28 -29v-218zM148 0l-37 37l37 38h243l37 -38
l-37 -37h-243z" />
    <glyph glyph-name="p" unicode="p" 
d="M479 392l-27 -28l-47 47v200l37 38l37 -38v-219zM428 663l-37 -38h-243l-74 75h317zM135 411l-47 -47l-28 28v294l75 -75v-200zM135 75l-75 -75v307l28 29l47 -47v-214zM400 387l38 -37l-38 -37h-261l-37 37l37 37h261z" />
    <glyph glyph-name="q" unicode="q" 
d="M479 392l-27 -28l-47 47v200l37 38l37 -38v-219zM428 663l-37 -38h-243l-37 38l37 37h243zM479 155l-37 -37l-37 37v134l47 47l27 -29v-152zM135 411l-47 -47l-28 28v219l37 38l38 -38v-200zM60 89l37 -38l38 38v200l-47 47l-28 -29v-218zM148 0l-37 37l37 38h176l37 -38
l-37 -37h-176zM338 89v53h53l88 -89v-53h-53z" />
    <glyph glyph-name="r" unicode="r" 
d="M479 392l-27 -28l-47 47v200l37 38l37 -38v-219zM428 663l-37 -38h-243l-74 75h317zM135 411l-47 -47l-28 28v294l75 -75v-200zM135 75l-75 -75v307l28 29l47 -47v-214zM186 241v53h53l240 -241v-53h-53zM400 387l38 -37l-38 -37h-261l-37 37l37 37h261z" />
    <glyph glyph-name="s" unicode="s" 
d="M479 663l-37 -38h-294l-37 38l37 37h294zM479 89l-37 -38l-37 38v200l47 47l27 -29v-218zM135 411l-47 -47l-28 28v219l37 38l38 -38v-200zM97 0l-37 37l37 38h294l37 -38l-37 -37h-294zM400 387l38 -37l-38 -37h-261l-37 37l37 37h261z" />
    <glyph glyph-name="t" unicode="t" 
d="M479 700l-74 -75h-270l-75 75h419zM307 37l-38 -37l-37 37v215l47 47l28 -28v-234zM307 354l-28 -27l-47 46v201l37 37l38 -37v-220z" />
    <glyph glyph-name="u" unicode="u" 
d="M479 89l-37 -38l-37 38v200l47 47l27 -29v-218zM60 89l37 -38l38 38v200l-47 47l-28 -29v-218zM148 0l-37 37l37 38h243l37 -38l-37 -37h-243zM60 392v308l75 -75v-214l-47 -47zM405 411v214l74 75v-308l-27 -28z" />
    <glyph glyph-name="v" unicode="v" 
d="M479 392l-27 -28l-47 47v214l74 75v-308zM446 282l-245 -245h-53v53l245 246l59 1zM135 411l-47 -47l-28 28v308l75 -75v-214zM60 37l37 -37l38 37v252l-47 47l-28 -29v-270z" />
    <glyph glyph-name="w" unicode="w" 
d="M479 392l-27 -28l-47 47v214l74 75v-308zM135 411l-47 -47l-28 28v308l75 -75v-214zM479 14l-74 75v200l47 47l27 -29v-293zM307 130l-38 -37l-37 37v168l37 38l38 -38v-168zM465 0h-391l74 75h243zM135 89l-75 -75v293l28 29l47 -47v-200z" />
    <glyph glyph-name="x" unicode="x" 
d="M284 364v82l152 254h43v-73l-157 -263h-38zM218 364l-158 263v73h43l152 -254v-82h-37zM255 336v-82l-152 -254h-43v73l158 263h37zM321 336l158 -263v-73h-43l-152 254v82h37z" />
    <glyph glyph-name="y" unicode="y" 
d="M479 392l-27 -28l-47 47v214l74 75v-308zM60 392l28 -28l47 47v214l-75 75v-308zM148 0l-37 37l37 38h243l37 -38l-37 -37h-243zM479 89l-37 -38l-37 38v200l47 47l27 -29v-218zM400 387l38 -37l-38 -37h-261l-37 37l37 37h261z" />
    <glyph glyph-name="z" unicode="z" 
d="M479 663l-37 -38h-307l-75 75h382zM465 0h-368l-37 37l37 38h294zM334 369l-66 -8l-3 40l162 205h52v-55zM211 336l40 4l9 -66l-145 -181h-55v52z" />
    <glyph glyph-name="braceleft" unicode="{" horiz-adv-x="418" 
d="M358 700l-74 -75h-47l-37 38l37 37h121zM223 392l-28 -28l-47 47v200l38 38l37 -38v-219zM181 350l-38 -37h-69l-38 37l38 37h69zM223 89l-37 -38l-38 38v200l47 47l28 -29v-218zM358 0h-121l-37 37l37 38h47z" />
    <glyph glyph-name="bar" unicode="|" horiz-adv-x="274" 
d="M101 -187v887h73v-887h-73z" />
    <glyph glyph-name="braceright" unicode="}" horiz-adv-x="418" 
d="M218 663l-37 -38h-46l-75 75h121zM269 411l-46 -47l-28 28v219l37 38l37 -38v-200zM269 89l-37 -38l-37 38v218l28 29l46 -47v-200zM381 350l-37 -37h-70l-37 37l37 37h70zM218 37l-37 -37h-121l75 75h46z" />
    <glyph glyph-name="asciitilde" unicode="~" horiz-adv-x="492" 
d="M60 260v95q20 23 42 33.5t47 10.5q41 0 105 -28q40 -17 72 -17q28 0 53 14.5t53 44.5v-99q-32 -43 -109 -43q-18 0 -33.5 2t-30.5 6.5t-52 22.5q-27 13 -46 13q-22 0 -45.5 -12t-55.5 -43z" />
    <glyph glyph-name="perthousand" unicode="&#x2030;" horiz-adv-x="971" 
d="M265 670l-37 -38h-80l-37 38l37 37h80zM265 427l-37 -37h-80l-37 37l37 38h80zM60 479l37 -36l38 36v139l-38 38l-37 -38v-139zM241 479v139l38 38l37 -38v-139l-37 -36zM554 280l-37 -38h-79l-38 38l38 37h79zM554 37l-37 -37h-79l-38 37l38 38h79zM349 89l37 -36l38 36
v139l-38 38l-37 -38v-139zM531 89v139l37 38l37 -38v-139l-37 -36zM353 320l-181 -316l-28 102l136 234l63 18zM340 446l135 234l103 27l-183 -314l-38 -11zM860 280l-37 -38h-79l-38 38l38 37h79zM860 37l-37 -37h-79l-38 37l38 38h79zM655 89l37 -36l38 36v139l-38 38
l-37 -38v-139zM837 89v139l37 38l37 -38v-139l-37 -36z" />
    <glyph glyph-name="quoteleft" unicode="&#x2018;" horiz-adv-x="194" 
d="M135 532h-75v131l37 37l38 -37v-131z" />
    <glyph glyph-name="quoteright" unicode="&#x2019;" horiz-adv-x="194" 
d="M135 569l-38 -37l-37 37v131h75v-131z" />
    <glyph glyph-name="quotedblleft" unicode="&#x201c;" horiz-adv-x="306" 
d="M247 532h-75v131l37 37l38 -37v-131zM135 532h-75v131l37 37l38 -37v-131z" />
    <glyph glyph-name="quotedblright" unicode="&#x201d;" horiz-adv-x="306" 
d="M135 569l-38 -37l-37 37v131h75v-131zM247 569l-38 -37l-37 37v131h75v-131z" />
    <glyph glyph-name="bullet" unicode="&#x2022;" 
d="M60 350q0 87 61.5 148.5t147.5 61.5q88 0 149 -61t61 -149q0 -87 -61.5 -148.5t-148.5 -61.5t-148 61t-61 149z" />
    <glyph glyph-name="endash" unicode="&#x2013;" horiz-adv-x="558" 
d="M505 387l38 -37l-38 -37h-456l-38 37l38 37h456z" />
    <glyph glyph-name="emdash" unicode="&#x2014;" horiz-adv-x="981" 
d="M931 387l37 -37l-37 -37h-882l-38 37l38 37h882z" />
  </font>
</defs>
</svg>
